Methadone Skies

Different Layers of Fear





• Жанр: Atmospheric Sludge | Stoner Metal
• Носитель: WEB
• Год издания: 2019
• Страна: Romania
• Аудиокодек: FLAC (*.flac)
• Тип рипа: tracks
• Продолжительность: 01:11:45
• Источник:
internet
• Наличие сканов: front

01 - Where Were You When We Were into the Void (00:06:13)
02 - God Help Us All (00:12:54)
03 - Focus (00:11:58)
04 - Contra (00:06:10)
05 - Ol' Painless (00:07:49)
06 - A Glitch in the Sun (00:10:36)
07 - Manos (00:16:01)
--

• Лог DRM •

foobar2000 1.4.2 / Dynamic Range Meter 1.1.1log date: 2019-05-10 17:38:36
--------------------------------------------------------------------------------Analyzed: Methadone Skies / Different Layers of Fear--------------------------------------------------------------------------------
DR Peak RMS Duration Track--------------------------------------------------------------------------------DR6 0.00 dB -7.41 dB 6:13 01-Where Were You When We Were into the Void?DR5 0.00 dB -6.98 dB 12:55 02-God Help Us AllDR6 0.00 dB -7.02 dB 11:59 03-FocusDR5 0.00 dB -6.58 dB 6:10 04-ContraDR6 0.00 dB -8.06 dB 7:50 05-Ol' PainlessDR6 0.00 dB -7.54 dB 10:37 06-A Glitch in the SunDR5 0.00 dB -6.85 dB 16:02 07-Manos--------------------------------------------------------------------------------
Number of tracks: 7Official DR value: DR6
Samplerate: 44100 HzChannels: 2Bits per sample: 16Bitrate: 866 kbpsCodec: FLAC================================================================================
-

• Лог проверки качества •

-----------------------
DON'T MODIFY THIS FILE
-----------------------
PERFORMER: auCDtect Task Manager, ver. 1.6.0 RC1 build 1.6.0.1Copyright (c) 2008-2010 y-soft. All rights reservedhttp://y-soft.org
ANALYZER: auCDtect: CD records authenticity detector, version 0.8.2Copyright (c) 2004 Oleg Berngardt. All rights reserved.Copyright (c) 2004 Alexander Djourik. All rights reserved.
FILE: 07 - Manos.flac Size: 104218021 Hash: DFEC2F734AC328B6F16B5A701C4DC250 Accuracy: -m0 Conclusion: CDDA 100% Signature: F7497436802A6558B5C073228F623848164F4D94FILE: 06 - A Glitch in the Sun.flac Size: 74617510 Hash: E9B0299D3CC0AF246C0AA2CBBF01C597 Accuracy: -m0 Conclusion: CDDA 100% Signature: BC32DBC296626E68BA748DEE0E098225701D7FA2FILE: 05 - Ol' Painless.flac Size: 52318515 Hash: 119BC7F299C673AFE455B10BB3524AC8 Accuracy: -m0 Conclusion: CDDA 100% Signature: 6111B1185057B5E9B405E8486B31F0C9DDC16439FILE: 04 - Contra.flac Size: 43996296 Hash: 943434DAD112F5BD0CABF5B930F4A321 Accuracy: -m0 Conclusion: CDDA 99% Signature: 76C5A30DF3CC9D5AB4BC8278728AC40C2487E03EFILE: 03 - Focus.flac Size: 82099116 Hash: B51EED550E6C9C27AE10913056E7007E Accuracy: -m0 Conclusion: CDDA 100% Signature: 0400CEB4C84ADBCF2A2F8262250A2BFAD6B51732FILE: 02 - God Help Us All.flac Size: 92193266 Hash: 1ADEBC6E4306DA9011ADCC30E1F17516 Accuracy: -m0 Conclusion: CDDA 100% Signature: D68518ECC768B8FD253339EC5ECCA24C143E63DBFILE: 01 - Where Were You When We Were into the Void.flac Size: 40446336 Hash: FA4A73358E52761ADF4584AC8C9DF51D Accuracy: -m0 Conclusion: CDDA 100% Signature: BCE5F813FA99361DF540666FCADB65C26F96514C
-

If you like the topic, please click share to help develop our site.

To download the file disable ad blocking, and reload the page.

disable adblock How to disable ad blocking?

Download by magnet link 468 MB Download Torrent

Login using:

Similar topics



   
Current time is: 17-Jul 05:30 :: All times are UTC + 3