Когда жизнь не стоит на пути / When Life Keeps Getting In The Way / Life Gets in the Way
Страна: США
Жанр: драма, мелодрама, комедия
Год выпуска: 2014
Продолжительность: 01:14:04
Перевод: Профессиональный (многоголосый закадровый) FOX
Субтитры: нет
Оригинальная аудиодорожка: английский
Режиссер: Лилиан Матта / Lili Matta
В ролях: Донна Миллс
Julie Sabray
Джеффри М. Ривз
Маккензи Мэйсон
Грегори Зариан
Уильям Морс
Рик Кроуфорд
Джоэнн Скорчиа
Майкл Донован
Джек Бремен
Описание: У немолодой женщины доктора Голдштейн в прошлом было много неблагополучных мгновений, а самым большим её жизненным разочарованием является одиночество. Ей очень часто приходилось принимать непростые решения, при этом обычное женское счастье так и осталось несбыточной мечтой. Главная героиня киноленты «Когда жизнь не стоит на пути» пытается разобраться с причинами ошибок прошлого и наладить жизнь в своём настоящем. Но построить серьёзные отношения в Лос-Анджелесе доктору Голдштейн весьма непросто.
Сэмпл: http://multi-up.com/1231875
Качество видео: HDTV 1080i
Формат видео: TS
Видео: AVC, 1920x1080 (16:9), 25.000 fps, 4 686 Kbps (0.090 bit/pixel)
Аудио: MP2, 48.0 KHz, 2 ch, 192 Kbps, CBR - русский
Аудио 2: MP2, 48.0 KHz, 2 ch, 192 Kbps, CBR - английский

MediaInfo

ОбщееИдентификатор                            : 4 (0x4)Полное имя                               : F:\Когда жизнь не стоит на пути.tsФормат                                   : MPEG-TSРазмер файла                             : 2,76 ГбайтПродолжительность                        : 1 ч. 14 м.Режим общего битрейта                    : ПеременныйОбщий поток                              : 5338 Кбит/сек
ВидеоИдентификатор : 1321 (0x529)Идентификатор меню : 13002 (0x32CA)Формат : AVCФормат/Информация : Advanced Video CodecПрофиль формата : [email protected]Настройки формата : CABAC / 4 Ref FramesПараметр CABAC формата : ДаПараметр RefFrames формата : 4 кадраПараметр GOP формата : M=4, N=24Идентификатор кодека : 27Продолжительность : 1 ч. 14 м.Битрейт : 4686 Кбит/секШирина : 1920 пикселейВысота : 1080 пикселейСоотношение сторон : 16:9Частота кадров : 25,000 кадров/секСтандарт вещания : ComponentЦветовое пространство : YUVСубдискретизация насыщенности : 4:2:0Битовая глубина : 8 битТип развёртки : ЧересстрочнаяМетод сохранения типа развёртки : Раздельные поляПорядок развёртки : Верхнее поле первоеБит/(Пиксели*Кадры) : 0.090Размер потока : 2,42 Гбайт (88%)Цветовой диапазон : LimitedОсновные цвета : BT.709Характеристики трансфера : BT.709Коэффициенты матрицы : BT.709
Аудио #1Идентификатор : 1322 (0x52A)Идентификатор меню : 13002 (0x32CA)Формат : MPEG AudioВерсия формата : Version 1Профиль формата : Layer 2Идентификатор кодека : 3Продолжительность : 1 ч. 14 м.Вид битрейта : ПостоянныйБитрейт : 192 Кбит/секКаналы : 2 каналаЧастота : 48,0 КГцЧастота кадров : 41,667 кадра/сек (1152 SPF)Метод сжатия : С потерямиЗадержка видео : -16 мс.Размер потока : 102 Мбайт (4%)Язык : Russian
Аудио #2Идентификатор : 1323 (0x52B)Идентификатор меню : 13002 (0x32CA)Формат : MPEG AudioВерсия формата : Version 1Профиль формата : Layer 2Идентификатор кодека : 3Продолжительность : 1 ч. 14 м.Вид битрейта : ПостоянныйБитрейт : 192 Кбит/секКаналы : 2 каналаЧастота : 48,0 КГцЧастота кадров : 41,667 кадра/сек (1152 SPF)Метод сжатия : С потерямиЗадержка видео : -16 мс.Размер потока : 102 Мбайт (4%)Язык : English

Скриншоты

Скрин с названием


If you like the topic, please click share to help develop our site.

To download the file disable ad blocking, and reload the page.

disable adblock How to disable ad blocking?

Download by magnet link 2.76 GB Download Torrent

Login using:

Similar topics



   
Current time is: 19-Jul 23:31 :: All times are UTC + 3