В одно ухо влетело / Diminished Capacity
Страна: США
Жанр: драма, комедия
Год выпуска: 2008
Продолжительность: 01:25:14
Перевод: Профессиональный (многоголосый закадровый)
Субтитры: нет
Оригинальная аудиодорожка: английский
Режиссер: Терри Кинни / Terry Kinney
В ролях: Мэттью Бродерик, Вирджиния Мэдсен, Алан Алда, Том Элдридж, Дилан Бейкер, Джимми Беннетт, П.Дж. Браун, Бобби Каннавале, Луис С.К., Дэвид Корбетт
Описание: Чикагский журналист Купер страдает странным посттравматическим синдромом — его память удерживает очень маленькую часть информации. Каждое утро он просыпается, не помня ничего из прошлой жизни. Он отправляется в свой родной город навестить своего дядюшку и ввергает себя в невероятные приключения…
Сэмпл: http://multi-up.com/1231874
Качество видео: HDTV 1080i
Формат видео: TS
Видео: AVC, 1920x1080 (16:9), 25.000 fps, 7 015 Kbps (0.135 bit/pixel)
Аудио: MP2, 48.0 KHz, 2 ch, 192 Kbps, CBR - русский
Аудио 2: MP2, 48.0 KHz, 2 ch, 192 Kbps, CBR - английский

MediaInfo

ОбщееИдентификатор                            : 4 (0x4)Полное имя                               : F:\В одно ухо влетело.tsФормат                                   : MPEG-TSРазмер файла                             : 4,64 ГбайтПродолжительность                        : 1 ч. 25 м.Режим общего битрейта                    : ПеременныйОбщий поток                              : 7788 Кбит/сек
ВидеоИдентификатор : 1321 (0x529)Идентификатор меню : 13002 (0x32CA)Формат : AVCФормат/Информация : Advanced Video CodecПрофиль формата : [email protected]Настройки формата : CABAC / 4 Ref FramesПараметр CABAC формата : ДаПараметр RefFrames формата : 4 кадраПараметр GOP формата : M=4, N=24Идентификатор кодека : 27Продолжительность : 1 ч. 25 м.Битрейт : 7015 Кбит/секШирина : 1920 пикселейВысота : 1080 пикселейСоотношение сторон : 16:9Частота кадров : 25,000 кадров/секСтандарт вещания : ComponentЦветовое пространство : YUVСубдискретизация насыщенности : 4:2:0Битовая глубина : 8 битТип развёртки : ЧересстрочнаяМетод сохранения типа развёртки : Раздельные поляПорядок развёртки : Верхнее поле первоеБит/(Пиксели*Кадры) : 0.135Размер потока : 4,18 Гбайт (90%)Цветовой диапазон : LimitedОсновные цвета : BT.709Характеристики трансфера : BT.709Коэффициенты матрицы : BT.709
Аудио #1Идентификатор : 1322 (0x52A)Идентификатор меню : 13002 (0x32CA)Формат : MPEG AudioВерсия формата : Version 1Профиль формата : Layer 2Идентификатор кодека : 3Продолжительность : 1 ч. 25 м.Вид битрейта : ПостоянныйБитрейт : 192 Кбит/секКаналы : 2 каналаЧастота : 48,0 КГцЧастота кадров : 41,667 кадра/сек (1152 SPF)Метод сжатия : С потерямиЗадержка видео : -16 мс.Размер потока : 117 Мбайт (2%)Язык : Russian
Аудио #2Идентификатор : 1323 (0x52B)Идентификатор меню : 13002 (0x32CA)Формат : MPEG AudioВерсия формата : Version 1Профиль формата : Layer 2Идентификатор кодека : 3Продолжительность : 1 ч. 25 м.Вид битрейта : ПостоянныйБитрейт : 192 Кбит/секКаналы : 2 каналаЧастота : 48,0 КГцЧастота кадров : 41,667 кадра/сек (1152 SPF)Метод сжатия : С потерямиЗадержка видео : -16 мс.Размер потока : 117 Мбайт (2%)Язык : English

Скриншоты


If you like the topic, please click share to help develop our site.

To download the file disable ad blocking, and reload the page.

disable adblock How to disable ad blocking?

Download by magnet link 4.64 GB Download Torrent

Login using:

Similar topics



   
Current time is: 19-Jul 23:52 :: All times are UTC + 3