Чудо доброй ведьмы / The Good Witch's Wonder
Страна: Канада
Жанр: фэнтези, драма, семейный
Год выпуска: 2014
Продолжительность: 01:26:39
Перевод: Профессиональный (многоголосый закадровый) FOX
Субтитры: английские
Оригинальная аудиодорожка: английский
Режиссер: Крэйг Прайс / Craig Pryce
В ролях: Кэтрин Белл
Крис Поттер
Катрин Дишер
Питер МакНейл
Аллан Ройал
Мэттью Найт
Паула Бодро
Ханна Эндикотт-Дуглас
Джесси Бостик
Ной Кэппи
Описание: Иногда «добрая ведьма» Касси Найтингейл ловит себя на мысли, что хотела бы обладать даром предвидения — например, в ситуации, когда ее пасынок Брендон неожиданно решает передвинуть день своей свадьбы, оставив Касси всего пару дней для ее организации. Однако помощь всегда приходит вовремя, и вот, в магазин Касси входит молодая женщина приятной внешности по имени Одри, чтобы предложить ей свои услуги. Обе женщины инстинктивно чувствуют взаимную симпатию, и Касси понимает, что может во всем доверять Одри. Передав управление магазином Одри, Касси получает возможность заняться Брендоном, который боится предстоящего в его жизни события. После разговора по душам Касси обретает уверенность, что согласие на брак Брендон произнесет громко и ясно. Также организация большого городского благотворительного аукциона требует от Касси много времени и сил. Удивительно, что Одри также горит желанием помочь с организацией аукциона, но когда она исчезает вместе со всеми предметами, которые должны были быть выставлены на аукцион, включая достаточно дорогие сувениры Касси, все подозрения падают на Одри, у которой есть что скрывать. Наступает момент проверки на прочность их дружеских связей....
Сэмпл: http://multi-up.com/1231780
Качество видео: WEB-DL 1080p
Формат видео: MKV
Видео: AVC, 1920x1080 (16:9), 23.976 fps, 7 782 Kbps (0.157 bit/pixel)
Аудио: AC-3, 48.0 KHz, 2 ch, 192 Kbps, CBR - русский
Аудио 2: E-AC-3, 48.0 KHz, 6 ch, 640 Kbps, CBR - английский

MediaInfo

ОбщееУникальный идентификатор                 : 211703572409107509675845801514820984317 (0x9F449FFC4E85CC73985A5CCB0D305DFD)Полное имя                               : F:\The Good Witch's Wonder (2014) 1080p Amazon WEB-DL DD+ 5.1 H.264-TrollHD.mkvФормат                                   : MatroskaВерсия формата                           : Version 2Размер файла                             : 5,32 ГбайтПродолжительность                        : 1 ч. 26 м.Режим общего битрейта                    : ПеременныйОбщий поток                              : 8789 Кбит/секНазвание фильма                          : Чудо доброй ведьмы / The Good Witch's Wonder (2014)Дата кодирования                         : UTC 2019-05-03 16:04:10Программа кодирования                    : mkvmerge v8.2.0 ('World of Adventure') 64bitБиблиотека кодирования                   : libebml v1.3.1 + libmatroska v1.4.2
ВидеоИдентификатор : 1Формат : AVCФормат/Информация : Advanced Video CodecПрофиль формата : [email protected]Настройки формата : CABAC / 4 Ref FramesПараметр CABAC формата : ДаПараметр RefFrames формата : 4 кадраИдентификатор кодека : V_MPEG4/ISO/AVCПродолжительность : 1 ч. 26 м.Вид битрейта : ПеременныйБитрейт : 7782 Кбит/секМаксимальный битрейт : 15,0 Мбит/секШирина : 1920 пикселейВысота : 1080 пикселейСоотношение сторон : 16:9Режим частоты кадров : ПостоянныйЧастота кадров : 23,976 (24000/1001) кадра/секЦветовое пространство : YUVСубдискретизация насыщенности : 4:2:0Битовая глубина : 8 битТип развёртки : ПрогрессивнаяБит/(Пиксели*Кадры) : 0.157Размер потока : 4,71 Гбайт (89%)Язык : EnglishDefault : ДаForced : НетЦветовой диапазон : LimitedОсновные цвета : BT.709Характеристики трансфера : BT.709Коэффициенты матрицы : BT.709
Аудио #1Идентификатор : 2Формат : AC-3Формат/Информация : Audio Coding 3Коммерческое название : Dolby DigitalИдентификатор кодека : A_AC3Продолжительность : 1 ч. 26 м.Вид битрейта : ПостоянныйБитрейт : 192 Кбит/секКаналы : 2 каналаChannel layout : L RЧастота : 48,0 КГцЧастота кадров : 31,250 кадров/сек (1536 SPF)Битовая глубина : 16 битМетод сжатия : С потерямиРазмер потока : 119 Мбайт (2%)Заголовок : Профессиональный (многоголосый закадровый) FOXЯзык : RussianServiceKind/String : Complete MainDefault : НетForced : Нет
Аудио #2Идентификатор : 3Формат : E-AC-3Формат/Информация : Enhanced AC-3Коммерческое название : Dolby Digital PlusИдентификатор кодека : A_EAC3Продолжительность : 1 ч. 26 м.Вид битрейта : ПостоянныйБитрейт : 640 Кбит/секКаналы : 6 каналовChannel layout : L R C LFE Ls RsЧастота : 48,0 КГцЧастота кадров : 31,250 кадров/сек (1536 SPF)Метод сжатия : С потерямиРазмер потока : 397 Мбайт (7%)Язык : EnglishServiceKind/String : Complete MainDefault : ДаForced : Нет
ТекстИдентификатор : 4Формат : UTF-8Идентификатор кодека : S_TEXT/UTF8Идентификатор кодека/Информация : UTF-8 Plain TextЯзык : EnglishDefault : НетForced : Нет

Скриншоты


скрин с названием


If you like the topic, please click share to help develop our site.

To download the file disable ad blocking, and reload the page.

disable adblock How to disable ad blocking?

Download by magnet link 5.32 GB Download Torrent

Login using:

Similar topics



   
Current time is: 20-Jul 11:04 :: All times are UTC + 3