Сын Америки / Native Son
Страна: США
Жанр: драма
Год выпуска: 2019
Продолжительность: 01:43:48
Перевод: Профессиональный (многоголосый закадровый) Amedia
Субтитры: нет
Оригинальная аудиодорожка: английский
Режиссер: Рашид Джонсон / Rashid Johnson
В ролях: Ник Дж. Робинсон
Маргарет Куэлли
Кики Лэйн
Стивен Хендерсон
Санаа Лэтэн
Эштон Сандерс
Элизабет Марвел
Дэвид Алан Грир
Джерод Хэйнс
Билл Кэмп
Описание: События ленты разворачиваются вокруг молодого афроамериканца, которому удается пробиться в высшую лигу, став личным водителем для богатой белой семьи. Заработав себе идеальную репутацию, он внезапно влюбляется в дочку своих работодателей, чем запускает цепочку, которая приведет его жизнь к тотальному хаосу.
Сэмпл: http://multi-up.com/1231779
Качество видео: WEB-DL 1080p
Формат видео: MKV
Видео: AVC, 1920x816 (2.35:1), 23.976 fps, 10 000 Kbps (0.094 bit/pixel)
Аудио: AC-3, 48.0 KHz, 2 ch, 192 Kbps, CBR - русский
Аудио 2: E-AC-3, 48.0 KHz, 6 ch, 640 Kbps, CBR - английский

MediaInfo

ОбщееУникальный идентификатор                 : 209441281817006327768143761799463634647 (0x9D90EC72A3129760842DB7AA45AD06D7)Полное имя                               : F:\Native.Son.2019.1080p.AMZN.WEB-DL.DDP5.1.H.264-NTG.mkvФормат                                   : MatroskaВерсия формата                           : Version 2Размер файла                             : 3,22 ГбайтПродолжительность                        : 1 ч. 43 м.Общий поток                              : 4448 Кбит/секНазвание фильма                          : Сын Америки / Native Son (2019)Дата кодирования                         : UTC 2019-04-11 21:52:37Программа кодирования                    : mkvmerge v8.2.0 ('World of Adventure') 64bitБиблиотека кодирования                   : libebml v1.3.1 + libmatroska v1.4.2
ВидеоИдентификатор : 1Формат : AVCФормат/Информация : Advanced Video CodecПрофиль формата : [email protected]Настройки формата : CABAC / 4 Ref FramesПараметр CABAC формата : ДаПараметр RefFrames формата : 4 кадраИдентификатор кодека : V_MPEG4/ISO/AVCПродолжительность : 1 ч. 43 м.Вид битрейта : ПостоянныйБитрейт : 3527 Кбит/секНоминальный битрейт : 10000 Кбит/секШирина : 1920 пикселейВысота : 816 пикселейСоотношение сторон : 2,35:1Соотношение сторон в оригинале : 2,35:1Режим частоты кадров : ПостоянныйЧастота кадров : 23,976 (24000/1001) кадра/секЦветовое пространство : YUVСубдискретизация насыщенности : 4:2:0Битовая глубина : 8 битТип развёртки : ПрогрессивнаяБит/(Пиксели*Кадры) : 0.094Размер потока : 2,56 Гбайт (79%)Язык : EnglishDefault : ДаForced : НетЦветовой диапазон : LimitedОсновные цвета : BT.709Характеристики трансфера : BT.709Коэффициенты матрицы : BT.709
Аудио #1Идентификатор : 2Формат : AC-3Формат/Информация : Audio Coding 3Коммерческое название : Dolby DigitalИдентификатор кодека : A_AC3Продолжительность : 1 ч. 43 м.Вид битрейта : ПостоянныйБитрейт : 192 Кбит/секКаналы : 2 каналаChannel layout : L RЧастота : 48,0 КГцЧастота кадров : 31,250 кадров/сек (1536 SPF)Битовая глубина : 16 битМетод сжатия : С потерямиЗадержка видео : -200 мс.Размер потока : 143 Мбайт (4%)Заголовок : Профессиональный (многоголосый, закадровый) AmediaЯзык : RussianServiceKind/String : Complete MainDefault : ДаForced : Нет
Аудио #2Идентификатор : 3Формат : E-AC-3Формат/Информация : Enhanced AC-3Коммерческое название : Dolby Digital PlusИдентификатор кодека : A_EAC3Продолжительность : 1 ч. 43 м.Вид битрейта : ПостоянныйБитрейт : 640 Кбит/секКаналы : 6 каналовChannel layout : L R C LFE Ls RsЧастота : 48,0 КГцЧастота кадров : 31,250 кадров/сек (1536 SPF)Метод сжатия : С потерямиРазмер потока : 475 Мбайт (14%)Язык : EnglishServiceKind/String : Complete MainDefault : НетForced : Нет
Текст #1Идентификатор : 4Формат : UTF-8Идентификатор кодека : S_TEXT/UTF8Идентификатор кодека/Информация : UTF-8 Plain TextЯзык : EnglishDefault : ДаForced : Нет
Текст #2Идентификатор : 5Формат : UTF-8Идентификатор кодека : S_TEXT/UTF8Идентификатор кодека/Информация : UTF-8 Plain TextЗаголовок : SDHЯзык : EnglishDefault : НетForced : Нет

Скриншот c названием фильма

Скриншоты



If you like the topic, please click share to help develop our site.

To download the file disable ad blocking, and reload the page.

disable adblock How to disable ad blocking?

Download by magnet link 3.22 GB Download Torrent

Login using:

Similar topics



   
Current time is: 20-Jul 10:14 :: All times are UTC + 3