Великолепная / Brillantissime
Страна: Франция, Бельгия
Жанр: комедия, мелодрама
Год выпуска: 2018
Продолжительность: 01:26:19
Перевод: Профессиональный (дублированный) Кинопремьера
Субтитры: нет
Оригинальная аудиодорожка: французский
Режиссер: Мишель Ларок / Michèle Laroque
В ролях: Мишель Ларок
Кад Мерад
Франсуаза Фабиан
Жерар Дармон
Росси де Пальма
Паскаль Элбе
Ориан Дешам
Артур Жакин
Ванта Талисман
Марта Вильялонга
Описание: На Лазурном берегу, в городе Ницца жила-была Анжела, и были у нее огромная квартира, куча роскошных нарядов, красавец-муж, экстравагантная подруга, энергичная мама, своенравная дочь, а также очень преданный и милый психоаналитик. И так она жила, горя не знала, пока однажды под Рождество муж не сделал ей неожиданный «подарок» — взял да и ушел из семьи. Кто виноват? Что делать? С чего начинать новую жизнь?.. Оплакивать долю несчастной разведёнки? Ну уж нет! Только радоваться вновь обретенной свободе! Ведь жизнь прекрасна, и в ней случаются чудеса…
Сэмпл: http://multi-up.com/1231777
Качество видео: WEB-DL 1080p
Формат видео: MKV
Видео: AVC, 1912x800 (2.35:1), 25.000 fps, 4 512 Kbps (0.118 bit/pixel)
Аудио: AC-3, 48.0 KHz, 2 ch, 192 Kbps, CBR - русский
Аудио 2: AC-3, 48.0 KHz, 6 ch, 384 Kbps, CBR - французский

MediaInfo

ОбщееУникальный идентификатор                 : 208514324124547787821561912516383508712 (0x9CDE65E7AFDFFEC585FC96B47A7688E8)Полное имя                               : F:\Brillantissime.2018.FRENCH.1080p.WEB-DL.H264-SiGeRiS.mkvФормат                                   : MatroskaВерсия формата                           : Version 2Размер файла                             : 3,13 ГбайтПродолжительность                        : 1 ч. 26 м.Общий поток                              : 5191 Кбит/секНазвание фильма                          : Великолепная / Brillantissime (2018)Дата кодирования                         : UTC 2019-05-03 14:46:30Программа кодирования                    : mkvmerge v8.2.0 ('World of Adventure') 64bitБиблиотека кодирования                   : libebml v1.3.1 + libmatroska v1.4.2
ВидеоИдентификатор : 1Формат : AVCФормат/Информация : Advanced Video CodecПрофиль формата : [email protected]Настройки формата : CABAC / 5 Ref FramesПараметр CABAC формата : ДаПараметр RefFrames формата : 5 кадровИдентификатор кодека : V_MPEG4/ISO/AVCПродолжительность : 1 ч. 26 м.Битрейт : 4512 Кбит/секШирина : 1912 пикселейВысота : 800 пикселейСоотношение сторон : 2,40:1Режим частоты кадров : ПостоянныйЧастота кадров : 25,000 кадров/секЦветовое пространство : YUVСубдискретизация насыщенности : 4:2:0Битовая глубина : 8 битТип развёртки : ПрогрессивнаяБит/(Пиксели*Кадры) : 0.118Размер потока : 2,72 Гбайт (87%)Язык : FrenchDefault : ДаForced : НетЦветовой диапазон : LimitedОсновные цвета : BT.709Характеристики трансфера : BT.709Коэффициенты матрицы : BT.709
Аудио #1Идентификатор : 2Формат : AC-3Формат/Информация : Audio Coding 3Коммерческое название : Dolby DigitalИдентификатор кодека : A_AC3Продолжительность : 1 ч. 26 м.Вид битрейта : ПостоянныйБитрейт : 192 Кбит/секКаналы : 2 каналаChannel layout : L RЧастота : 48,0 КГцЧастота кадров : 31,250 кадров/сек (1536 SPF)Битовая глубина : 16 битМетод сжатия : С потерямиРазмер потока : 119 Мбайт (4%)Заголовок : Профессиональный (дублированный) КинопремьераЯзык : RussianServiceKind/String : Complete MainDefault : ДаForced : Нет
Аудио #2Идентификатор : 3Формат : AC-3Формат/Информация : Audio Coding 3Коммерческое название : Dolby DigitalИдентификатор кодека : A_AC3Продолжительность : 1 ч. 26 м.Вид битрейта : ПостоянныйБитрейт : 384 Кбит/секКаналы : 6 каналовChannel layout : L R C LFE Ls RsЧастота : 48,0 КГцЧастота кадров : 31,250 кадров/сек (1536 SPF)Битовая глубина : 16 битМетод сжатия : С потерямиРазмер потока : 237 Мбайт (7%)Язык : FrenchServiceKind/String : Complete MainDefault : НетForced : Нет

Скриншот c названием фильма

Скриншоты



If you like the topic, please click share to help develop our site.

To download the file disable ad blocking, and reload the page.

disable adblock How to disable ad blocking?

Download by magnet link 3.13 GB Download Torrent

Login using:

Similar topics



   
Current time is: 16-Jul 09:47 :: All times are UTC + 3