Почему я похитила своего босса / Warum ich meinen Boss entführte
Страна: Германия
Жанр: комедия
Год выпуска: 2014
Продолжительность: 01:28:02
Перевод: Профессиональный (многоголосый закадровый) FOX
Субтитры: нет
Оригинальная аудиодорожка: немецкий
Режиссер: Петер Герсина / Peter Gersina
В ролях:
Люк Фейт
Джулия Хартманн
Патрик Хейн
Стефан Хорнунг
Anja Nejarri
Людгер Пистор
Описание: Вполне возможно, что Макс, босс Анны - самый худший босс в мире и к тому же редкостный негодяй, но Анне нужна работа, а вакансия выглядит весьма привлекательной. Однажды, находясь в машине с Анной, Макс попадает в ДТП - назовем это адским лежачим полицейским - и сильно ударяется головой, после чего становится совершенно другим человеком: ласковым, обаятельным, любящим и заботливым. Анна быстро понимает, что у него приступ амнезии, и решает воспользоваться моментом, чтобы привести его к себе домой. и, прежде, чем к нему вернется память, показать ему, что значит вести домашнее хозяйство, воспитывать двух детей и одновременно успевать делать свою работу для самого противного босса на свете. Ее ожидает настоящий сюрприз, когда она видит, как он ласков с ней, как заботится о ее двойняшках, пока она буквально пропадает на работе, чтобы спасти его компанию. Однако в какой-то момент он опять ударяется головой и вновь превращается в обычного подлого Макса.
Сэмпл: http://multi-up.com/1231878
Качество видео: HDTV 1080i
Формат видео: TS
Видео: AVC, 1920x1080 (16:9), 25.000 fps, 5 123 Kbps (0.099 bit/pixel)
Аудио: MP2, 48.0 KHz, 2 ch, 192 Kbps, CBR - русский
Аудио 2: MP2, 48.0 KHz, 2 ch, 192 Kbps, CBR - немецкий

MediaInfo

ОбщееИдентификатор                            : 4 (0x4)Полное имя                               : F:\Почему я похитила своего босса.tsФормат                                   : MPEG-TSРазмер файла                             : 3,57 ГбайтПродолжительность                        : 1 ч. 28 м.Режим общего битрейта                    : ПеременныйОбщий поток                              : 5797 Кбит/сек
ВидеоИдентификатор : 1321 (0x529)Идентификатор меню : 13002 (0x32CA)Формат : AVCФормат/Информация : Advanced Video CodecПрофиль формата : [email protected]Настройки формата : CABAC / 4 Ref FramesПараметр CABAC формата : ДаПараметр RefFrames формата : 4 кадраПараметр GOP формата : M=4, N=24Идентификатор кодека : 27Продолжительность : 1 ч. 28 м.Битрейт : 5123 Кбит/секШирина : 1920 пикселейВысота : 1080 пикселейСоотношение сторон : 16:9Частота кадров : 25,000 кадров/секСтандарт вещания : ComponentЦветовое пространство : YUVСубдискретизация насыщенности : 4:2:0Битовая глубина : 8 битТип развёртки : ЧересстрочнаяМетод сохранения типа развёртки : Раздельные поляПорядок развёртки : Верхнее поле первоеБит/(Пиксели*Кадры) : 0.099Размер потока : 3,15 Гбайт (88%)Цветовой диапазон : LimitedОсновные цвета : BT.709Характеристики трансфера : BT.709Коэффициенты матрицы : BT.709
Аудио #1Идентификатор : 1322 (0x52A)Идентификатор меню : 13002 (0x32CA)Формат : MPEG AudioВерсия формата : Version 1Профиль формата : Layer 2Идентификатор кодека : 3Продолжительность : 1 ч. 28 м.Вид битрейта : ПостоянныйБитрейт : 192 Кбит/секКаналы : 2 каналаЧастота : 48,0 КГцЧастота кадров : 41,667 кадра/сек (1152 SPF)Метод сжатия : С потерямиЗадержка видео : -16 мс.Размер потока : 121 Мбайт (3%)Язык : Russian
Аудио #2Идентификатор : 1323 (0x52B)Идентификатор меню : 13002 (0x32CA)Формат : MPEG AudioВерсия формата : Version 1Профиль формата : Layer 2Идентификатор кодека : 3Продолжительность : 1 ч. 28 м.Вид битрейта : ПостоянныйБитрейт : 192 Кбит/секКаналы : 2 каналаЧастота : 48,0 КГцЧастота кадров : 41,667 кадра/сек (1152 SPF)Метод сжатия : С потерямиЗадержка видео : -16 мс.Размер потока : 121 Мбайт (3%)Язык : German

Скриншот c названием фильма

Скриншоты


If you like the topic, please click share to help develop our site.

To download the file disable ad blocking, and reload the page.

disable adblock How to disable ad blocking?

Download by magnet link 3.57 GB Download Torrent

Login using:

Similar topics



   
Current time is: 17-Jul 06:18 :: All times are UTC + 3