Никаких детей, малыш! / Ich will (k)ein Kind von Dir
Страна: Германия
Жанр: комедия
Год выпуска: 2016
Продолжительность: 01:28:05
Перевод: Профессиональный (многоголосый закадровый) FOX
Субтитры: нет
Оригинальная аудиодорожка: немецкий
Режиссер: Инго Распер / Ingo Rasper
В ролях: Франциска Вайс
Феликс Кларе
Марен Кройман
Михаэль Виттенборн
Кристина Хеке
Кай Лентродт
Stephanie Lexer
Мэттью Бертон
Мария Валсер
Тереза Хардер
Описание:
Анна и Филипп живут в пригороде Берлина, словно созданном для семейной жизни. На первый взгляд, это счастливая пара, однако один вопрос не дает им покоя - Филип мечтает о ребенке, а Анну совершенно не привлекает перспектива стать матерью. Когда в успешной карьере Анны намечается очередной важный поворот - ей предлагают должность профессора в другом городе - вопрос о ребенке встает во весь рост и его решение не требует отлагательств.
Но чем сильнее Филип старается увлечь Анну преимуществами семейной жизни, тем менее она склонна поддаться на его уговоры. Сможет ли их любовь выдержать этот конфликт?
Сэмпл: http://multi-up.com/1231877
Качество видео: HDTV 1080i
Формат видео: TS
Видео: AVC, 1920x1080 (16:9), 25.000 fps, 4 787 Kbps (0.092 bit/pixel)
Аудио: MP2, 48.0 KHz, 2 ch, 192 Kbps, CBR - русский
Аудио 2: MP2, 48.0 KHz, 2 ch, 192 Kbps, CBR - немецкий

MediaInfo

ОбщееИдентификатор                            : 4 (0x4)Полное имя                               : F:\Никаких детей, малыш!.tsФормат                                   : MPEG-TSРазмер файла                             : 3,35 ГбайтПродолжительность                        : 1 ч. 28 м.Режим общего битрейта                    : ПеременныйОбщий поток                              : 5444 Кбит/сек
ВидеоИдентификатор : 1321 (0x529)Идентификатор меню : 13002 (0x32CA)Формат : AVCФормат/Информация : Advanced Video CodecПрофиль формата : [email protected]Настройки формата : CABAC / 4 Ref FramesПараметр CABAC формата : ДаПараметр RefFrames формата : 4 кадраИдентификатор кодека : 27Продолжительность : 1 ч. 28 м.Битрейт : 4787 Кбит/секШирина : 1920 пикселейВысота : 1080 пикселейСоотношение сторон : 16:9Частота кадров : 25,000 кадров/секСтандарт вещания : ComponentЦветовое пространство : YUVСубдискретизация насыщенности : 4:2:0Битовая глубина : 8 битТип развёртки : ЧересстрочнаяМетод сохранения типа развёртки : Раздельные поляПорядок развёртки : Верхнее поле первоеБит/(Пиксели*Кадры) : 0.092Размер потока : 2,95 Гбайт (88%)Цветовой диапазон : LimitedОсновные цвета : BT.709Характеристики трансфера : BT.709Коэффициенты матрицы : BT.709
Аудио #1Идентификатор : 1322 (0x52A)Идентификатор меню : 13002 (0x32CA)Формат : MPEG AudioВерсия формата : Version 1Профиль формата : Layer 2Идентификатор кодека : 3Продолжительность : 1 ч. 28 м.Вид битрейта : ПостоянныйБитрейт : 192 Кбит/секКаналы : 2 каналаЧастота : 48,0 КГцЧастота кадров : 41,667 кадра/сек (1152 SPF)Метод сжатия : С потерямиЗадержка видео : -24 мс.Размер потока : 121 Мбайт (4%)Язык : Russian
Аудио #2Идентификатор : 1323 (0x52B)Идентификатор меню : 13002 (0x32CA)Формат : MPEG AudioВерсия формата : Version 1Профиль формата : Layer 2Идентификатор кодека : 3Продолжительность : 1 ч. 28 м.Вид битрейта : ПостоянныйБитрейт : 192 Кбит/секКаналы : 2 каналаЧастота : 48,0 КГцЧастота кадров : 41,667 кадра/сек (1152 SPF)Метод сжатия : С потерямиЗадержка видео : -24 мс.Размер потока : 121 Мбайт (4%)Язык : German

Скриншот c названием фильма

Скриншоты


If you like the topic, please click share to help develop our site.

To download the file disable ad blocking, and reload the page.

disable adblock How to disable ad blocking?

Download by magnet link 3.35 GB Download Torrent

Login using:

Similar topics



   
Current time is: 17-Jul 05:22 :: All times are UTC + 3