Мои слова, моя ложь, моя любовь / Lila, Lila / My Words, My Lies - My Love
Страна: Германия
Жанр: драма, мелодрама, комедия
Год выпуска: 2009
Продолжительность: 01:42:35
Перевод: Профессиональный (многоголосый закадровый)
Субтитры: нет
Оригинальная аудиодорожка: немецкий
Режиссер: Ален Гспонер / Alain Gsponer
В ролях: Даниэль Брюль
Ханна Херцшпрунг
Хенри Хюбхен
Кирстен Блок
Питер Шнайдер
Хенриетта Мюллер
Саймон Экерт
Александр Куон
Годехард Гизе
Рихард Заммель
Описание: Давид Керн работает официантом и мало интересуется литературой. Единственная настоящая страсть в его жизни — это Мария. А Мария любит литературу и кажется Давиду недостижимой. Но ситуация меняется после того, как Давид находит в ящике старого стола рукопись неопубликованного романа и даёт её почитать Марии. Мария приходит в восторг и тайно передаёт рукопись издательству. Все признают вышедший роман шедевром и объявляют Давида литературной суперзвездой, а Мария с каждой новой хвалебной рецензией любит его всё больше.
В ходе писательского турне сбывается кошмар Давида — у него просит автограф пожилой человек по имени Альфред Дустер. Давиду это имя хорошо знакомо, ведь Альфред Дустер — автор рукописи. Дустер требует денег и всё больше вторгается в жизнь Давида. Когда напряжение становится невыносимым, Давид признаётся Марии во лжи. Она покидает его; сначала он обескуражен, но затем решает объяснить ей своё отчаянное положение и бороться за её любовь.
Сэмпл: http://multi-up.com/1231876
Качество видео: HDTV 1080i
Формат видео: TS
Видео: AVC, 1920x1080 (16:9), 25.000 fps, 6 136 Kbps (0.118 bit/pixel)
Аудио: MP2, 48.0 KHz, 2 ch, 192 Kbps, CBR - русский
Аудио 2: MP2, 48.0 KHz, 2 ch, 192 Kbps, CBR - немецкий

MediaInfo

ОбщееИдентификатор                            : 4 (0x4)Полное имя                               : F:\Мои слова, моя ложь, моя любовь.tsФормат                                   : MPEG-TSРазмер файла                             : 4,92 ГбайтПродолжительность                        : 1 ч. 42 м.Режим общего битрейта                    : ПеременныйОбщий поток                              : 6863 Кбит/сек
ВидеоИдентификатор : 1321 (0x529)Идентификатор меню : 13002 (0x32CA)Формат : AVCФормат/Информация : Advanced Video CodecПрофиль формата : [email protected]Настройки формата : CABAC / 4 Ref FramesПараметр CABAC формата : ДаПараметр RefFrames формата : 4 кадраИдентификатор кодека : 27Продолжительность : 1 ч. 42 м.Битрейт : 6136 Кбит/секШирина : 1920 пикселейВысота : 1080 пикселейСоотношение сторон : 16:9Частота кадров : 25,000 кадров/секСтандарт вещания : ComponentЦветовое пространство : YUVСубдискретизация насыщенности : 4:2:0Битовая глубина : 8 битТип развёртки : ЧересстрочнаяМетод сохранения типа развёртки : Раздельные поляПорядок развёртки : Верхнее поле первоеБит/(Пиксели*Кадры) : 0.118Размер потока : 4,40 Гбайт (89%)Цветовой диапазон : LimitedОсновные цвета : BT.709Характеристики трансфера : BT.709Коэффициенты матрицы : BT.709
Аудио #1Идентификатор : 1322 (0x52A)Идентификатор меню : 13002 (0x32CA)Формат : MPEG AudioВерсия формата : Version 1Профиль формата : Layer 2Идентификатор кодека : 3Продолжительность : 1 ч. 42 м.Вид битрейта : ПостоянныйБитрейт : 192 Кбит/секКаналы : 2 каналаЧастота : 48,0 КГцЧастота кадров : 41,667 кадра/сек (1152 SPF)Метод сжатия : С потерямиЗадержка видео : -24 мс.Размер потока : 141 Мбайт (3%)Язык : Russian
Аудио #2Идентификатор : 1323 (0x52B)Идентификатор меню : 13002 (0x32CA)Формат : MPEG AudioВерсия формата : Version 1Профиль формата : Layer 2Идентификатор кодека : 3Продолжительность : 1 ч. 42 м.Вид битрейта : ПостоянныйБитрейт : 192 Кбит/секКаналы : 2 каналаЧастота : 48,0 КГцЧастота кадров : 41,667 кадра/сек (1152 SPF)Метод сжатия : С потерямиЗадержка видео : -24 мс.Размер потока : 141 Мбайт (3%)Язык : English

Скриншоты


If you like the topic, please click share to help develop our site.

To download the file disable ad blocking, and reload the page.

disable adblock How to disable ad blocking?

Download by magnet link 4.92 GB Download Torrent

Login using:

Similar topics



   
Current time is: 20-Jul 10:44 :: All times are UTC + 3