Tom Jones / The Legendary Tom Jones - 30th Anniversary Album
Жанр: pop
Носитель: CD
Страна-производитель диска (релиза): Germany
Год издания: 1995
Издатель (лейбл): Deram
Номер по каталогу: 844 552-2
Страна исполнителя (группы): UK
Аудиокодек: FLAC (*.flac)
Тип рипа: image+.cue
Продолжительность: 01:11:38
Источник: собственный рип
Наличие сканов в содержимом раздачи: да
Треклист:
1 It's Not Unusual - 1st Studio Version (Tom Jones and Les Reed)
2 What's New Pussycat?
3 Green Green Grass Of Home
4 Not Responsible (Tom Jones, Johnny Harris)
5 Spanish Harlem (Tom Jones and Les Reed)
6 With These Hands
7 Once Upon A Time (Tom Jones and Les Reed)
8 Thunderball
9 Funny Familiar Forgotten Feelings
10 What A Party (Tom Jones, Charles Black)
11 Chills And Fever
12 This And That
13 (It Looks Like) I'll Never Fall In Love Again (Tom Jones, Charles Black)
14 Promise Her Anything (Tom Jones, Johnny Harris)
15 Sixteen Tons (Tom Jones and Les Reed)
16 Detroit City
17 Kiss Kiss (Tom Jones and Les Reed & Orchestra)
18 The Rose - Version 1 (Tom Jones and Les Reed & Orchestra)
19 Ten Guitars (Tom Jones, Charles Black)
20 He'll Have To Go (Tom Jones and Les Reed)
21 Stop Breaking My Heart
22 I Can't Stop Loving You - Version 1 (Live) (Tom Jones, The Squires)
23 Once There Was A Time (Tom Jones, Johnny Harris)
24 The Nearness Of You (Tom Jones, Johnny Scott )
25 To Make A Big Man Cry (Tom Jones and Les Reed)
26 It's Not Unusual - 2nd Studio Version

Лог создания рипа

Exact Audio Copy V1.3 from 2. September 2016
EAC extraction logfile from 11. May 2019, 17:36
Tom Jones / The Legendary Tom Jones 30th Anniversary Album
Used drive : Lenovo Slim_USB_Burner Adapter: 1 ID: 0
Read mode : SecureUtilize accurate stream : YesDefeat audio cache : YesMake use of C2 pointers : No
Read offset correction : 6Overread into Lead-In and Lead-Out : NoFill up missing offset samples with silence : YesDelete leading and trailing silent blocks : NoNull samples used in CRC calculations : YesUsed interface : Native Win32 interface for Win NT & 2000
Used output format : User Defined EncoderSelected bitrate : 128 kBit/sQuality : HighAdd ID3 tag : NoCommand line compressor : C:\Program Files (x86)\Exact Audio Copy\FLAC\FLAC.EXEAdditional command line options : -V -8 -T "Date=%year%" -T "Genre=%genre%" %source%
TOC of the extracted CD
Track | Start | Length | Start sector | End sector --------------------------------------------------------- 1 | 0:00.33 | 2:19.00 | 33 | 10457 2 | 2:19.33 | 2:08.00 | 10458 | 20057 3 | 4:27.33 | 3:07.00 | 20058 | 34082 4 | 7:34.33 | 2:13.00 | 34083 | 44057 5 | 9:47.33 | 3:22.00 | 44058 | 59207 6 | 13:09.33 | 2:46.00 | 59208 | 71657 7 | 15:55.33 | 2:12.00 | 71658 | 81557 8 | 18:07.33 | 2:55.00 | 81558 | 94682 9 | 21:02.33 | 3:00.00 | 94683 | 108182 10 | 24:02.33 | 2:30.00 | 108183 | 119432 11 | 26:32.33 | 2:55.00 | 119433 | 132557 12 | 29:27.33 | 2:59.67 | 132558 | 146049 13 | 32:27.25 | 4:16.08 | 146050 | 165257 14 | 36:43.33 | 2:38.00 | 165258 | 177107 15 | 39:21.33 | 3:07.02 | 177108 | 191134 16 | 42:28.35 | 3:35.73 | 191135 | 207332 17 | 46:04.33 | 2:25.00 | 207333 | 218207 18 | 48:29.33 | 2:48.00 | 218208 | 230807 19 | 51:17.33 | 2:58.00 | 230808 | 244157 20 | 54:15.33 | 3:24.00 | 244158 | 259457 21 | 57:39.33 | 2:29.00 | 259458 | 270632 22 | 60:08.33 | 3:04.00 | 270633 | 284432 23 | 63:12.33 | 2:29.00 | 284433 | 295607 24 | 65:41.33 | 3:16.00 | 295608 | 310307 25 | 68:57.33 | 2:48.00 | 310308 | 322907 26 | 71:45.33 | 2:03.20 | 322908 | 332152
Range status and errors
Selected range
Filename E:\музыка\Tom Jones lossless\The Legendary Tom Jones 30th Anniversary Album\Tom Jones - The Legendary Tom Jones 30th Anniversary Album.wav
Peak level 100.0 % Extraction speed 2.1 X Range quality 100.0 % Test CRC E45287E4 Copy CRC E45287E4 Copy OK
No errors occurred
AccurateRip summary
Track 1 accurately ripped (confidence 4) [3F6623BC] (AR v2)Track 2 accurately ripped (confidence 4) [DD83F0F1] (AR v2)Track 3 accurately ripped (confidence 4) [B3CE3225] (AR v2)Track 4 accurately ripped (confidence 4) [DE7DF166] (AR v2)Track 5 accurately ripped (confidence 4) [0A7000F8] (AR v2)Track 6 accurately ripped (confidence 4) [37E8598F] (AR v2)Track 7 accurately ripped (confidence 4) [B9F45585] (AR v2)Track 8 accurately ripped (confidence 4) [0AB3608D] (AR v2)Track 9 accurately ripped (confidence 4) [153AC451] (AR v2)Track 10 accurately ripped (confidence 4) [E4486AF1] (AR v2)Track 11 accurately ripped (confidence 4) [CDD72CBE] (AR v2)Track 12 accurately ripped (confidence 4) [A81128C3] (AR v2)Track 13 accurately ripped (confidence 4) [B8AFFD67] (AR v2)Track 14 accurately ripped (confidence 4) [A87FC1FD] (AR v2)Track 15 accurately ripped (confidence 4) [89920A2D] (AR v2)Track 16 accurately ripped (confidence 4) [D1A2B95F] (AR v2)Track 17 accurately ripped (confidence 4) [93DCC460] (AR v2)Track 18 accurately ripped (confidence 4) [11BE6826] (AR v2)Track 19 accurately ripped (confidence 4) [445B4C86] (AR v2)Track 20 accurately ripped (confidence 4) [4294537E] (AR v2)Track 21 accurately ripped (confidence 4) [B11810AF] (AR v2)Track 22 accurately ripped (confidence 4) [6A0FA098] (AR v2)Track 23 accurately ripped (confidence 4) [9A3C935D] (AR v2)Track 24 accurately ripped (confidence 4) [9A1883B9] (AR v2)Track 25 accurately ripped (confidence 4) [C4B3E5AF] (AR v2)Track 26 accurately ripped (confidence 4) [ECBA2768] (AR v2)
All tracks accurately ripped
End of status report
---- CUETools DB Plugin V2.1.6
[CTDB TOCID: VkgVhulPoPsf96JVltze0Qky3bU-] foundSubmit result: already submittedTrack | CTDB Status 1 | (16/16) Accurately ripped 2 | (16/16) Accurately ripped 3 | (16/16) Accurately ripped 4 | (16/16) Accurately ripped 5 | (15/16) Accurately ripped 6 | (15/16) Accurately ripped 7 | (16/16) Accurately ripped 8 | (15/16) Accurately ripped 9 | (16/16) Accurately ripped 10 | (16/16) Accurately ripped 11 | (16/16) Accurately ripped 12 | (16/16) Accurately ripped 13 | (16/16) Accurately ripped 14 | (16/16) Accurately ripped 15 | (15/16) Accurately ripped 16 | (15/16) Accurately ripped 17 | (15/16) Accurately ripped 18 | (15/16) Accurately ripped 19 | (15/16) Accurately ripped 20 | (15/16) Accurately ripped 21 | (16/16) Accurately ripped 22 | (15/16) Accurately ripped 23 | (15/16) Accurately ripped 24 | (15/16) Accurately ripped 25 | (15/16) Accurately ripped 26 | (15/16) Accurately ripped
==== Log checksum 798C30027D21F44E1213517849CAF77493D9BD8B7E713C82EE7997DEFD234E40 ====

If you like the topic, please click share to help develop our site.

To download the file disable ad blocking, and reload the page.

disable adblock How to disable ad blocking?

Download by magnet link 439 MB Download Torrent

Login using:

Similar topics



   
Current time is: 17-Jul 05:57 :: All times are UTC + 3