Neil Sedaka / Laughter & Tears
Жанр: Rock & Roll, Pop Rock
Носитель: CD
Страна-производитель диска (релиза): UK
Год издания: 1999
Издатель (лейбл): Spectrum Music
Номер по каталогу: 550 0322
Страна исполнителя (группы): USA
Аудиокодек: FLAC (*.flac)
Тип рипа: image+.cue
Продолжительность: 01:03:38
Источник: собственный рип
Наличие сканов в содержимом раздачи: да
Треклист:
1 Standing On The Inside
2 Love Will Keep Us Together
3 Solitaire (Live)
4 The Other Side Of Me
5 A Little Lovin'
6 Lonely Night (Angel Face)
7 Brighton
8 (I'm A Song) Sing Me
9 Breaking Up Is Hard To Do (Ballad Version)
10 Laughter In The Rain
11 Cardboard California
12 Bad Blood
13 The Queen Of 1964
14 The Hungry Years
15 Betty Grable
16 Beautiful You
17 That's When The Music Takes Me (Live)
18 Our Last Song Together

Лог создания рипа

Exact Audio Copy V1.3 from 2. September 2016
EAC extraction logfile from 11. May 2019, 14:27
Neil Sedaka / Laughter & Tears: The Best of Neil Sedaka Today
Used drive : Lenovo Slim_USB_Burner Adapter: 1 ID: 0
Read mode : SecureUtilize accurate stream : YesDefeat audio cache : YesMake use of C2 pointers : No
Read offset correction : 6Overread into Lead-In and Lead-Out : NoFill up missing offset samples with silence : YesDelete leading and trailing silent blocks : NoNull samples used in CRC calculations : YesUsed interface : Native Win32 interface for Win NT & 2000
Used output format : User Defined EncoderSelected bitrate : 128 kBit/sQuality : HighAdd ID3 tag : NoCommand line compressor : C:\Program Files (x86)\Exact Audio Copy\FLAC\FLAC.EXEAdditional command line options : -V -8 -T "Date=%year%" -T "Genre=%genre%" %source%
TOC of the extracted CD
Track | Start | Length | Start sector | End sector --------------------------------------------------------- 1 | 0:00.32 | 4:45.25 | 32 | 21431 2 | 4:45.57 | 3:45.63 | 21432 | 38369 3 | 8:31.45 | 4:49.07 | 38370 | 60051 4 | 13:20.52 | 3:37.08 | 60052 | 76334 5 | 16:57.60 | 2:56.05 | 76335 | 89539 6 | 19:53.65 | 3:13.25 | 89540 | 104039 7 | 23:07.15 | 3:34.60 | 104040 | 120149 8 | 26:42.00 | 2:27.52 | 120150 | 131226 9 | 29:09.52 | 3:15.63 | 131227 | 145914 10 | 32:25.40 | 2:49.12 | 145915 | 158601 11 | 35:14.52 | 4:13.63 | 158602 | 177639 12 | 39:28.40 | 3:07.65 | 177640 | 191729 13 | 42:36.30 | 3:32.30 | 191730 | 207659 14 | 46:08.60 | 4:05.20 | 207660 | 226054 15 | 50:14.05 | 2:49.57 | 226055 | 238786 16 | 53:03.62 | 3:23.00 | 238787 | 254011 17 | 56:26.62 | 3:10.05 | 254012 | 268266 18 | 59:36.67 | 4:01.35 | 268267 | 286376
Range status and errors
Selected range
Filename E:\музыка\Neil Sedaka\Neil Sedaka - Laughter & Tears.wav
Peak level 100.0 % Extraction speed 2.0 X Range quality 99.9 % Test CRC B82F6949 Copy CRC B82F6949 Copy OK
No errors occurred
AccurateRip summary
Track 1 accurately ripped (confidence 5) [0EAD5619] (AR v2)Track 2 accurately ripped (confidence 5) [3FBD2E4C] (AR v2)Track 3 accurately ripped (confidence 5) [D13B04D5] (AR v2)Track 4 accurately ripped (confidence 5) [D59EE130] (AR v2)Track 5 accurately ripped (confidence 5) [552E84C2] (AR v2)Track 6 accurately ripped (confidence 5) [CAF7176C] (AR v2)Track 7 accurately ripped (confidence 5) [03587704] (AR v2)Track 8 accurately ripped (confidence 5) [5E762B2A] (AR v2)Track 9 accurately ripped (confidence 5) [B3C5D9D9] (AR v2)Track 10 accurately ripped (confidence 5) [024B020D] (AR v2)Track 11 accurately ripped (confidence 5) [1D802FB1] (AR v2)Track 12 accurately ripped (confidence 5) [3145EF03] (AR v2)Track 13 accurately ripped (confidence 5) [7862B921] (AR v2)Track 14 accurately ripped (confidence 5) [54738E5A] (AR v2)Track 15 accurately ripped (confidence 5) [D4352AF2] (AR v2)Track 16 accurately ripped (confidence 5) [C6322B13] (AR v2)Track 17 accurately ripped (confidence 5) [FECED145] (AR v2)Track 18 accurately ripped (confidence 5) [59E9EAA4] (AR v2)
All tracks accurately ripped
End of status report
---- CUETools DB Plugin V2.1.6
[CTDB TOCID: vESxQ2KAbV.08SvyJlbCnM7KMzU-] foundSubmit result: vESxQ2KAbV.08SvyJlbCnM7KMzU- has been confirmedTrack | CTDB Status 1 | (14/14) Accurately ripped 2 | (14/14) Accurately ripped 3 | (14/14) Accurately ripped 4 | (14/14) Accurately ripped 5 | (14/14) Accurately ripped 6 | (14/14) Accurately ripped 7 | (14/14) Accurately ripped 8 | (14/14) Accurately ripped 9 | (14/14) Accurately ripped 10 | (14/14) Accurately ripped 11 | (14/14) Accurately ripped 12 | (14/14) Accurately ripped 13 | (14/14) Accurately ripped 14 | (14/14) Accurately ripped 15 | (14/14) Accurately ripped 16 | (14/14) Accurately ripped 17 | (14/14) Accurately ripped 18 | (13/14) Accurately ripped
==== Log checksum 35A736115630223B964063C134D2C45EC99F0566A23DDABADEE1678DA76337F6 ====

If you like the topic, please click share to help develop our site.

To download the file disable ad blocking, and reload the page.

disable adblock How to disable ad blocking?

Download by magnet link 368 MB Download Torrent

Login using:



   
Current time is: 16-Jul 08:56 :: All times are UTC + 3