Семейные игры / Family Games
Страна: США
Жанр: драма, комедия
Год выпуска: 2017
Продолжительность: 01:09:40
Перевод: Профессиональный (многоголосый закадровый) FOX
Субтитры: нет
Оригинальная аудиодорожка: английский
Режиссер: Судзуя Бобо / Suzuya Bobo
В ролях:
Меган Бун
Ларри Бриггман
Элисон Фрайзер
Дерек Сесил
Маргарет Энн Флоренс
Рональд Катания
Описание: Слоан возвращается в дом своего детства вместе со своим бойфрендом Барреттом. Она полна решимости разрушить планы ее отца Рона повторно жениться.
Сэмпл: http://multi-up.com/1231880
Качество видео: HDTV 1080i
Формат видео: TS
Видео: AVC, 1920x1080 (16:9), 25.000 fps, 4 478 Kbps (0.086 bit/pixel)
Аудио: MP2, 48.0 KHz, 2 ch, 192 Kbps, CBR - русский
Аудио 2: MP2, 48.0 KHz, 2 ch, 192 Kbps, CBR - английский

MediaInfo

ОбщееИдентификатор                            : 4 (0x4)Полное имя                               : F:\Семейные игры.tsФормат                                   : MPEG-TSРазмер файла                             : 2,49 ГбайтПродолжительность                        : 1 ч. 9 м.Режим общего битрейта                    : ПеременныйОбщий поток                              : 5119 Кбит/сек
ВидеоИдентификатор : 1321 (0x529)Идентификатор меню : 13002 (0x32CA)Формат : AVCФормат/Информация : Advanced Video CodecПрофиль формата : [email protected]Настройки формата : CABAC / 4 Ref FramesПараметр CABAC формата : ДаПараметр RefFrames формата : 4 кадраИдентификатор кодека : 27Продолжительность : 1 ч. 9 м.Битрейт : 4478 Кбит/секШирина : 1920 пикселейВысота : 1080 пикселейСоотношение сторон : 16:9Частота кадров : 25,000 кадров/секСтандарт вещания : ComponentЦветовое пространство : YUVСубдискретизация насыщенности : 4:2:0Битовая глубина : 8 битТип развёртки : ЧересстрочнаяМетод сохранения типа развёртки : Раздельные поляПорядок развёртки : Верхнее поле первоеБит/(Пиксели*Кадры) : 0.086Размер потока : 2,18 Гбайт (87%)Цветовой диапазон : LimitedОсновные цвета : BT.709Характеристики трансфера : BT.709Коэффициенты матрицы : BT.709
Аудио #1Идентификатор : 1322 (0x52A)Идентификатор меню : 13002 (0x32CA)Формат : MPEG AudioВерсия формата : Version 1Профиль формата : Layer 2Идентификатор кодека : 3Продолжительность : 1 ч. 9 м.Вид битрейта : ПостоянныйБитрейт : 192 Кбит/секКаналы : 2 каналаЧастота : 48,0 КГцЧастота кадров : 41,667 кадра/сек (1152 SPF)Метод сжатия : С потерямиЗадержка видео : -24 мс.Размер потока : 95,7 Мбайт (4%)Язык : Russian
Аудио #2Идентификатор : 1323 (0x52B)Идентификатор меню : 13002 (0x32CA)Формат : MPEG AudioВерсия формата : Version 1Профиль формата : Layer 2Идентификатор кодека : 3Продолжительность : 1 ч. 9 м.Вид битрейта : ПостоянныйБитрейт : 192 Кбит/секКаналы : 2 каналаЧастота : 48,0 КГцЧастота кадров : 41,667 кадра/сек (1152 SPF)Метод сжатия : С потерямиЗадержка видео : -24 мс.Размер потока : 95,7 Мбайт (4%)Язык : English

Скриншот c названием фильма

Скриншоты


If you like the topic, please click share to help develop our site.

To download the file disable ad blocking, and reload the page.

disable adblock How to disable ad blocking?

Download by magnet link 2.49 GB Download Torrent

Login using:

Similar topics



   
Current time is: 20-Jul 11:03 :: All times are UTC + 3