Мой Мундиаль / Mi Mundial
Страна: Уругвай, Бразилия, Аргентина
Студия: Coral Cine, La Gota Cine, Panda Filmes и др.
Жанр: семейный, спорт
Год выпуска: 2017
Продолжительность: 01:38:02
Перевод: Одноголосый закадровый - Галина Васюкова
Субтитры: русские (jojag)
Оригинальная аудиодорожка: испанский
Режиссер: Карлос Андрес Морелли / Carlos Andrés Morelli
В ролях: Факундо Кампело, Канделария Риенци, Вероника Перротта, Нестор Гуццини, Сесар Тронкосо, Рони Вийела, Хорхе Болани, Марсель Кеороглиан
Описание: Юный 13-летний Тито - подающий большие надежды талантливый футболист из провинции. Его отец работает сантехником, прикидываясь охранником. Заметив талант мальчика, футбольный агент уговаривает всю семью переехать в столицу Монтевидео. В надежде улучшить своё благосостояние, отец Тито соглашается. В столице Тито становится национальной звездой. Ослеплённый таким взлётом, он бросает школу и друзей. Когда он получает предложение от бразильского футбольного клуба, с ним происходит несчастный случай, который разбивает его мечты на тысячи осколков...
Доп. информация: Перевод на русский - jojag, озвучание - Галина Васюкова, сведение звука - Нордер, редактирование русского текста и организация озвучания - sergeyk888, организация перевода и создание проекта - serega
Кинопоиск - IMDb
Sample
Тип релиза: WEB-DL 1080p
Контейнер: MKV
Видео: MPEG4 AVC Video, H264, 1920x1080, 25 fps, 2723 Kbps
Аудио 1: Russian (AC3, 2 ch, 256 kbps, 16 bits, 48.0 KHz) - VO
Аудио 2: Spanish (AC3, 2 ch, 256 kbps, 16 bits, 48.0 KHz) - оригинал
Формат субтитров: softsub (SRT)

MediaInfo

General
Unique ID : 215586912764359402473305932331513207761 (0xA23087728376F390900FFB56AF2ADBD1)
Complete name : D:\Mi Mundial 2017.mkv
Format : Matroska
Format version : Version 4 / Version 2
File size : 2.26 GiB
Duration : 1 h 38 min
Overall bit rate : 3 300 kb/s
Encoded date : UTC 2019-05-11 09:53:31
Writing application : mkvmerge v6.1.0 ('Old Devil') built on Mar 2 2013 14:32:37
Writing library : libebml v1.3.0 + libmatroska v1.4.0
Video
ID : 1
Format : AVC
Format/Info : Advanced Video Codec
Format profile : [email protected]
Format settings : CABAC / 4 Ref Frames
Format settings, CABAC : Yes
Format settings, ReFrames : 4 frames
Codec ID : V_MPEG4/ISO/AVC
Duration : 1 h 38 min
Bit rate : 2 723 kb/s
Width : 1 920 pixels
Height : 1 080 pixels
Display aspect ratio : 16:9
Frame rate mode : Constant
Frame rate : 25.000 FPS
Color space : YUV
Chroma subsampling : 4:2:0
Bit depth : 8 bits
Scan type : Progressive
Bits/(Pixel*Frame) : 0.053
Stream size : 1.86 GiB (82%)
Writing library : Zencoder Video Encoding System
Language : Spanish
Default : Yes
Forced : No
Color range : Limited
Color primaries : BT.709
Transfer characteristics : BT.709
Matrix coefficients : BT.709
Audio #1
ID : 2
Format : AC-3
Format/Info : Audio Coding 3
Codec ID : A_AC3
Duration : 1 h 38 min
Bit rate mode : Constant
Bit rate : 256 kb/s
Channel(s) : 2 channels
Channel positions : Front: L R
Sampling rate : 48.0 kHz
Frame rate : 31.250 FPS (1536 SPF)
Bit depth : 16 bits
Compression mode : Lossy
Stream size : 180 MiB (8%)
Language : Russian
Service kind : Complete Main
Default : Yes
Forced : No
Audio #2
ID : 3
Format : AC-3
Format/Info : Audio Coding 3
Codec ID : A_AC3
Duration : 1 h 38 min
Bit rate mode : Constant
Bit rate : 256 kb/s
Channel(s) : 2 channels
Channel positions : Front: L R
Sampling rate : 48.0 kHz
Frame rate : 31.250 FPS (1536 SPF)
Bit depth : 16 bits
Compression mode : Lossy
Stream size : 180 MiB (8%)
Language : Spanish
Service kind : Complete Main
Default : No
Forced : No
Text
ID : 4
Format : UTF-8
Codec ID : S_TEXT/UTF8
Codec ID/Info : UTF-8 Plain Text
Language : Russian
Default : No
Forced : No

Скриншоты



If you like the topic, please click share to help develop our site.

To download the file disable ad blocking, and reload the page.

disable adblock How to disable ad blocking?

Download by magnet link 2.26 GB Download Torrent

Login using:

Similar topics



   
Current time is: 17-Jul 05:21 :: All times are UTC + 3