Клаустрофобы / Escape Room
Страна: США, ЮАР
Студия: Original Film
Жанр: триллер
Год выпуска: 2019
Продолжительность: 01:39:37--Перевод: Профессиональный (дублированный)
Субтитры: русские, английские
Оригинальная аудио дорожка: английский--Режиссер: Адам Робител / Adam Robitel--В ролях: Тейлор Расселл, Логан Миллер, Джей Эллис, Тайлер Лэбин, Дебора Энн Уолл, Ник Додани, Йорик ван Вагенинген, Корнелиус Джини мл., Рассел Кроус, Барт Фаш--Описание: Получив приглашение сыграть в квест, победитель которого получит денежное вознаграждение, шестеро прежде незнакомых между собой людей решают испытать удачу. Но вскоре становится очевидно, что их выбрали для игры не случайно, задания не такие безобидные, участникам грозит вполне реальная опасность, а ставка в игре — их собственные жизни.--Доп. информация: Рип сделан с исходника BD от pirs18 - спасибо.--Сэмпл: https://yadi.sk/i/40T-_-9gvKZjxg--Тип релиза: BDRip 720p (Исходник: Escape Room 2019 1080p Blu-ray AVC DTS-HD MA 5.1)
Контейнер: MKV
Видео кодек: H.264
Аудио кодек: DTS, AC-3
Видео: MPEG4/AVC, 2.40:1, 23.976 (24000/1001) FPS, 1280x536p, 4689 kb/s
Аудио 1: Русский, AC-3, 48.0 kHz, 5.1, 640 kb/s - дубляж
Аудио 2: Английский, DTS, 48.0 kHz, 5.1, 1509 kb/s, 16 bit
Формат субтитров: softsub (SRT)
Релиз:

MediaInfo

x264x264 [info]: profile Progressive High, level 4.1, 4:2:0, 8-bitx264 [info]: frame I:1567  Avg QP:12.92  size:116683x264 [info]: frame P:29030 Avg QP:14.22  size: 55696x264 [info]: frame B:112731 Avg QP:16.33  size: 15118x264 [info]: consecutive B-frames:  2.0%  2.1%  5.0% 22.3% 15.3% 32.3%  6.5%  9.4%  1.4%  1.5%  0.4%  1.2%  0.3%  0.3%x264 [info]: kb/s:4689.23
Формат : MatroskaВерсия формата : Version 4Размер файла : 4,76 ГбайтПродолжительность : 1 ч. 39 м.Общий поток : 6842 Кбит/секНазвание фильма : Escape Room 2019 1080p Blu-ray AVC DTS-HD MA 5.1 - ********Дата кодирования : UTC 2019-05-11 04:11:28Программа кодирования : mkvmerge v33.1.0 ('Primrose') 64-bitБиблиотека кодирования : libebml v1.3.7 + libmatroska v1.5.0Обложка : YesAttachments : cover.jpg
ВидеоИдентификатор : 1Формат : AVCФормат/Информация : Advanced Video CodecПрофиль формата : [email protected]Настройки формата : CABAC / 12 Ref FramesПараметр CABAC формата : ДаПараметр RefFrames формата : 12 кадровИдентификатор кодека : V_MPEG4/ISO/AVCПродолжительность : 1 ч. 39 м.Битрейт : 4689 Кбит/секШирина : 1280 пикселейВысота : 536 пикселейСоотношение сторон : 2,40:1Режим частоты кадров : ПостоянныйЧастота кадров : 23,976 (24000/1001) кадра/секЦветовое пространство : YUVСубдискретизация насыщенности : 4:2:0Битовая глубина : 8 битТип развёртки : ПрогрессивнаяБит/(Пиксели*Кадры) : 0.285Размер потока : 3,26 Гбайт (69%)Заголовок : Escape Room 2019 1080p Blu-ray AVC DTS-HD MA 5.1 - ripped by Библиотека кодирования : x264 core 157 r2969 d4099ddНастройки программы : cabac=1 / ref=12 / deblock=1:-3:-3 / analyse=0x3:0x113 / me=umh / subme=10 / psy=1 / psy_rd=0.84:0.20 / mixed_ref=1 / me_range=24 / chroma_me=1 / trellis=2 / 8x8dct=1 / cqm=0 / deadzone=21,11 / fast_pskip=1 / chroma_qp_offset=-3 / threads=6 / lookahead_threads=1 / sliced_threads=0 / nr=0 / decimate=0 / interlaced=0 / bluray_compat=0 / constrained_intra=0 / bframes=13 / b_pyramid=2 / b_adapt=2 / b_bias=0 / direct=1 / weightb=1 / open_gop=0 / weightp=2 / keyint=250 / keyint_min=23 / scenecut=40 / intra_refresh=0 / rc_lookahead=60 / rc=crf / mbtree=0 / crf=16.6 / qcomp=0.64 / qpmin=0 / qpmax=69 / qpstep=4 / vbv_maxrate=50000 / vbv_bufsize=62500 / crf_max=0.0 / nal_hrd=none / filler=0 / ip_ratio=1.40 / pb_ratio=1.30 / aq=3:0.90Default : ДаForced : Нет
Аудио #1Идентификатор : 2Формат : AC-3Формат/Информация : Audio Coding 3Коммерческое название : Dolby DigitalИдентификатор кодека : A_AC3Продолжительность : 1 ч. 39 м.Вид битрейта : ПостоянныйБитрейт : 640 Кбит/секКаналы : 6 каналовChannelLayout : L R C LFE Ls RsЧастота : 48,0 КГцЧастота кадров : 31,250 кадров/сек (1536 SPF)Битовая глубина : 16 битМетод сжатия : С потерямиРазмер потока : 456 Мбайт (9%)Заголовок : дубляжЯзык : RussianServiceKind/String : Complete MainDefault : ДаForced : Нет
Аудио #2Идентификатор : 3Формат : DTSФормат/Информация : Digital Theater SystemsИдентификатор кодека : A_DTSПродолжительность : 1 ч. 39 м.Вид битрейта : ПостоянныйБитрейт : 1509 Кбит/секКаналы : 6 каналовChannelLayout : C L R Ls Rs LFEЧастота : 48,0 КГцЧастота кадров : 93,750 кадра/сек (512 SPF)Битовая глубина : 16 битМетод сжатия : С потерямиРазмер потока : 1,05 Гбайт (22%)Заголовок : английскийЯзык : EnglishDefault : НетForced : Нет
Текст #1Идентификатор : 4Формат : UTF-8Идентификатор кодека : S_TEXT/UTF8Идентификатор кодека/Информация : UTF-8 Plain TextПродолжительность : 1 ч. 33 м.Битрейт : 98 бит/секElementCount : 1355Размер потока : 67,5 Кбайт (0%)Заголовок : русскиеЯзык : RussianDefault : НетForced : Нет
Текст #2Идентификатор : 5Формат : UTF-8Идентификатор кодека : S_TEXT/UTF8Идентификатор кодека/Информация : UTF-8 Plain TextПродолжительность : 1 ч. 33 м.Битрейт : 69 бит/секElementCount : 1333Размер потока : 47,7 Кбайт (0%)Заголовок : английскиеЯзык : EnglishDefault : НетForced : Нет
Меню00:00:00.000 : :Chapter 100:04:36.025 : :Chapter 200:09:25.648 : :Chapter 300:14:08.764 : :Chapter 400:19:46.101 : :Chapter 500:25:55.220 : :Chapter 600:33:08.945 : :Chapter 700:37:27.161 : :Chapter 800:43:05.082 : :Chapter 900:50:06.169 : :Chapter 1000:53:58.568 : :Chapter 1101:03:15.291 : :Chapter 1201:09:07.893 : :Chapter 1301:16:14.695 : :Chapter 1401:22:48.755 : :Chapter 1501:30:27.880 : :Chapter 16

Скриншоты

Сравнение

BD---------------------------------------RIP

If you like the topic, please click share to help develop our site.

To download the file disable ad blocking, and reload the page.

disable adblock How to disable ad blocking?

Download by magnet link 4.76 GB Download Torrent

Login using:

Similar topics



   
Current time is: 17-Jul 05:39 :: All times are UTC + 3