Paul Butterfield’s Better Days / It All Comes Back
Жанр: Blues
Носитель: CD
Страна-производитель диска (релиза): USA
Год издания: 1973
Издатель (лейбл): Bearsville Records
Номер по каталогу: R2 70878
Аудиокодек: FLAC (*.flac)
Тип рипа: image+.cue
Продолжительность: 0:39:05.60
Источник: pazanenok
Наличие сканов в содержимом раздачи: да
Треклист:
01.Too Many Drivers
02.It's Getting Harder to Survive
03.If You Live
04.Win or Lose
05.Small Town Talk
06.Take Your Pleasure Where You Find It
07.Poor Boy
08.Louisiana Flood
09.It All Comes Back

Лог создания рипа

Exact Audio Copy V1.1 from 23. June 2015
EAC extraction logfile from 11. May 2019, 15:11
Paul Butterfield’s Better Days / It All Comes Back
Used drive : PIONEER DVD-RW DVR-219L Adapter: 1 ID: 0
Read mode : SecureUtilize accurate stream : YesDefeat audio cache : YesMake use of C2 pointers : No
Read offset correction : 6Overread into Lead-In and Lead-Out : NoFill up missing offset samples with silence : YesDelete leading and trailing silent blocks : NoNull samples used in CRC calculations : YesUsed interface : Native Win32 interface for Win NT & 2000
Used output format : User Defined EncoderSelected bitrate : 128 kBit/sQuality : HighAdd ID3 tag : NoCommand line compressor : C:\Program Files\Exact Audio Copy\Flac\flac.exeAdditional command line options : -V -8 -T "Genre=%genre%" -T "Artist=%artist%" -T "Title=%title%" -T "Album=%albumtitle%" -T "Date=%year%" -T "Tracknumber=%tracknr%" -T "Comment=%comment%" %source%
TOC of the extracted CD
Track | Start | Length | Start sector | End sector --------------------------------------------------------- 1 | 0:00.32 | 3:21.70 | 32 | 15176 2 | 3:22.27 | 4:02.15 | 15177 | 33341 3 | 7:24.42 | 3:29.18 | 33342 | 49034 4 | 10:53.60 | 4:38.52 | 49035 | 69936 5 | 15:32.37 | 5:37.48 | 69937 | 95259 6 | 21:10.10 | 3:43.52 | 95260 | 112036 7 | 24:53.62 | 4:22.00 | 112037 | 131686 8 | 29:15.62 | 3:42.30 | 131687 | 148366 9 | 32:58.17 | 6:08.00 | 148367 | 175966
Range status and errors
Selected range
Filename E:\Раздачи\Paul Butterfield’s Better Days - It All Comes Back - 1973\Paul Butterfield’s Better Days - It All Comes Back.wav
Peak level 100.0 % Extraction speed 2.6 X Range quality 99.9 % Test CRC 4D7C62F0 Copy CRC 4D7C62F0 Copy OK
No errors occurred
AccurateRip summary
Track 1 accurately ripped (confidence 3) [00A5FF79] (AR v2)Track 2 accurately ripped (confidence 3) [9A48AD08] (AR v2)Track 3 accurately ripped (confidence 3) [A26CA7CF] (AR v2)Track 4 accurately ripped (confidence 3) [328E6043] (AR v2)Track 5 accurately ripped (confidence 3) [BECDC572] (AR v2)Track 6 accurately ripped (confidence 3) [D98BC59A] (AR v2)Track 7 accurately ripped (confidence 3) [734B4685] (AR v2)Track 8 accurately ripped (confidence 3) [E6909C9D] (AR v2)Track 9 accurately ripped (confidence 3) [EF5BC192] (AR v2)
All tracks accurately ripped
End of status report
==== Log checksum D5722968EFEEEF5B1B65E22B0AC81DF911BA74A1A0AD70A08E11517AE0F0B2FB ====

If you like the topic, please click share to help develop our site.

To download the file disable ad blocking, and reload the page.

disable adblock How to disable ad blocking?

Download by magnet link 229 MB Download Torrent

Login using:

Similar topics



   
Current time is: 20-Jul 00:35 :: All times are UTC + 3