Johnny Adams / After Dark
Жанр: Blues
Носитель: CD
Страна-производитель диска (релиза): Canada
Год издания: 1986
Издатель (лейбл): Rounder Records Corp.
Номер по каталогу: Rounder CD 2049
Аудиокодек: FLAC (*.flac)
Тип рипа: image+.cue
Продолжительность: 0:42:19.62
Источник: pazanenok
Наличие сканов в содержимом раздачи: да
Треклист:
1 Lovers Will
2 I Don't Know You
3 Fortune Teller
4 Missing You
5 Do Right Woman-Do Right Man
5 Give A Broken Heart A Break
7 She Said The Same Things To Me
8 Garbage Man
9 Dancing Man
10 Snap Your Fingers

Лог создания рипа

Exact Audio Copy V1.1 from 23. June 2015
EAC extraction logfile from 11. May 2019, 13:51
Johnny Adams / After Dark
Used drive : PIONEER DVD-RW DVR-219L Adapter: 1 ID: 0
Read mode : SecureUtilize accurate stream : YesDefeat audio cache : YesMake use of C2 pointers : No
Read offset correction : 6Overread into Lead-In and Lead-Out : NoFill up missing offset samples with silence : YesDelete leading and trailing silent blocks : NoNull samples used in CRC calculations : YesUsed interface : Native Win32 interface for Win NT & 2000
Used output format : User Defined EncoderSelected bitrate : 128 kBit/sQuality : HighAdd ID3 tag : NoCommand line compressor : C:\Program Files\Exact Audio Copy\Flac\flac.exeAdditional command line options : -V -8 -T "Genre=%genre%" -T "Artist=%artist%" -T "Title=%title%" -T "Album=%albumtitle%" -T "Date=%year%" -T "Tracknumber=%tracknr%" -T "Comment=%comment%" %source%
TOC of the extracted CD
Track | Start | Length | Start sector | End sector --------------------------------------------------------- 1 | 0:00.00 | 3:59.22 | 0 | 17946 2 | 3:59.22 | 5:02.10 | 17947 | 40606 3 | 9:01.32 | 4:36.38 | 40607 | 61344 4 | 13:37.70 | 3:00.42 | 61345 | 74886 5 | 16:38.37 | 5:36.28 | 74887 | 100114 6 | 22:14.65 | 4:02.22 | 100115 | 118286 7 | 26:17.12 | 4:07.00 | 118287 | 136811 8 | 30:24.12 | 4:11.35 | 136812 | 155671 9 | 34:35.47 | 3:48.45 | 155672 | 172816 10 | 38:24.17 | 3:55.45 | 172817 | 190486
Range status and errors
Selected range
Filename E:\Раздачи\Johnny Adams - After Dark - 1986\Johnny Adams - After Dark.wav
Peak level 62.7 % Extraction speed 2.8 X Range quality 99.9 % Copy CRC ACFF94BA Copy OK
No errors occurred
AccurateRip summary
Track 1 accurately ripped (confidence 4) [DD7BD535] (AR v2)Track 2 accurately ripped (confidence 4) [69AF49C6] (AR v2)Track 3 accurately ripped (confidence 4) [5467DD9D] (AR v2)Track 4 accurately ripped (confidence 4) [7A27A13C] (AR v2)Track 5 accurately ripped (confidence 4) [887FBA82] (AR v2)Track 6 accurately ripped (confidence 4) [B1FE01E3] (AR v2)Track 7 accurately ripped (confidence 4) [B4FCD50C] (AR v2)Track 8 accurately ripped (confidence 4) [19D4A7B2] (AR v2)Track 9 accurately ripped (confidence 4) [86CA35D2] (AR v2)Track 10 accurately ripped (confidence 4) [1623E644] (AR v2)
All tracks accurately ripped
End of status report
==== Log checksum 71644DC996474AD6711FAE70DA244709E649C44D05D98978A3289698552CFEBE ====

If you like the topic, please click share to help develop our site.

To download the file disable ad blocking, and reload the page.

disable adblock How to disable ad blocking?

Download by magnet link 245 MB Download Torrent

Login using:

Similar topics



   
Current time is: 17-Jul 05:23 :: All times are UTC + 3