Earl Thomas / Blue... Not Blues
Жанр: Blues, Soul
Носитель: CD
Страна-производитель диска (релиза): US
Год издания: 1991
Издатель (лейбл): Bizarre/Straight
Номер по каталогу: R2 70366
Аудиокодек: FLAC (*.flac)
Тип рипа: tracks+.cue
Продолжительность: 00:43:28
Источник: awaxhome
Наличие сканов в содержимом раздачи: да
Треклист:
1 I Sing The Blues 5:22
2 What I've Got To Do 4:35
3 I Ain't Ready (To Give Up On Your Love) 3:59
4 Your Love 3:45
5 I'll Be Here 4:22
6 Nothing Left To Lose 3:46
7 The Way She Shakes That Thang 5:13
8 Special Lovin 3:51
9 Baby Please Don't Cry 4:27
10 I Won't Be Around 3:37

Лог создания рипа

Exact Audio Copy V1.0 beta 1 from 15. November 2010
EAC extraction logfile from 18. May 2013, 13:10
Earl Thomas / Blue Not Blues
Used drive : SONY DVD RW DRU-810A Adapter: 1 ID: 2
Read mode : SecureUtilize accurate stream : YesDefeat audio cache : YesMake use of C2 pointers : No
Read offset correction : 618Overread into Lead-In and Lead-Out : NoFill up missing offset samples with silence : YesDelete leading and trailing silent blocks : NoNull samples used in CRC calculations : YesUsed interface : Installed external ASPI interfaceGap handling : Appended to previous track
Used output format : User Defined EncoderSelected bitrate : 768 kBit/sQuality : HighAdd ID3 tag : NoCommand line compressor : C:\Program Files\Exact Audio Copy-NEW\Flac\flac.exeAdditional command line options : -8 -V -T "ARTIST=%a" -T "TITLE=%t" -T "ALBUM=%g" -T "DATE=%y" -T "TRACKNUMBER=%n" -T "TOTALTRACKS=%x" -T "GENRE=%m" -T "ALBUMARTIST=%v" -T "ALBUM ARTIST=%v" -T "COMMENT=EAC V1.01b1, Secure Mode, Test & Copy, AccurateRip, FL
TOC of the extracted CD
Track | Start | Length | Start sector | End sector --------------------------------------------------------- 1 | 0:00.50 | 5:24.30 | 50 | 24379 2 | 5:25.05 | 4:34.62 | 24380 | 44991 3 | 9:59.67 | 4:03.38 | 44992 | 63254 4 | 14:03.30 | 3:45.40 | 63255 | 80169 5 | 17:48.70 | 4:27.20 | 80170 | 100214 6 | 22:16.15 | 3:49.17 | 100215 | 117406 7 | 26:05.32 | 5:17.63 | 117407 | 141244 8 | 31:23.20 | 3:55.47 | 141245 | 158916 9 | 35:18.67 | 4:32.50 | 158917 | 179366 10 | 39:51.42 | 3:42.45 | 179367 | 196061
Track 1
Filename J:\New Rips\Earl Thomas - Blue Not Blues (1991) [FLAC]\01 - I Sing The Blues.wav
Pre-gap length 0:00:02.50
Peak level 100.0 % Extraction speed 4.1 X Track quality 99.9 % Test CRC F7963C0D Copy CRC F7963C0D Accurately ripped (confidence 2) [F31904F2] Copy OK
Track 2
Filename J:\New Rips\Earl Thomas - Blue Not Blues (1991) [FLAC]\02 - What I've Got To Do.wav
Pre-gap length 0:00:02.13
Peak level 100.0 % Extraction speed 5.2 X Track quality 100.0 % Test CRC 70DB47C5 Copy CRC 70DB47C5 Accurately ripped (confidence 2) [6A9CAF84] Copy OK
Track 3
Filename J:\New Rips\Earl Thomas - Blue Not Blues (1991) [FLAC]\03 - I Ain't Ready.wav
Pre-gap length 0:00:01.52
Peak level 99.4 % Extraction speed 5.6 X Track quality 100.0 % Test CRC 767F7593 Copy CRC 767F7593 Accurately ripped (confidence 2) [BEDA9E39] Copy OK
Track 4
Filename J:\New Rips\Earl Thomas - Blue Not Blues (1991) [FLAC]\04 - Your Love.wav
Pre-gap length 0:00:01.43
Peak level 100.0 % Extraction speed 5.9 X Track quality 100.0 % Test CRC EA03708D Copy CRC EA03708D Accurately ripped (confidence 2) [3BD30BFE] Copy OK
Track 5
Filename J:\New Rips\Earl Thomas - Blue Not Blues (1991) [FLAC]\05 - I'll Be Here.wav
Pre-gap length 0:00:02.48
Peak level 100.0 % Extraction speed 6.4 X Track quality 100.0 % Test CRC 67B1389B Copy CRC 67B1389B Accurately ripped (confidence 2) [ACDED26B] Copy OK
Track 6
Filename J:\New Rips\Earl Thomas - Blue Not Blues (1991) [FLAC]\06 - Nothing Left To Lose.wav
Pre-gap length 0:00:02.58
Peak level 100.0 % Extraction speed 6.6 X Track quality 100.0 % Test CRC B3690C88 Copy CRC B3690C88 Accurately ripped (confidence 2) [87406FC8] Copy OK
Track 7
Filename J:\New Rips\Earl Thomas - Blue Not Blues (1991) [FLAC]\07 - The Way She Shakes That Thang.wav
Pre-gap length 0:00:02.22
Peak level 100.0 % Extraction speed 7.2 X Track quality 100.0 % Test CRC 59166615 Copy CRC 59166615 Accurately ripped (confidence 2) [08E5920A] Copy OK
Track 8
Filename J:\New Rips\Earl Thomas - Blue Not Blues (1991) [FLAC]\08 - Special Lovin.wav
Pre-gap length 0:00:02.33
Peak level 98.6 % Extraction speed 7.3 X Track quality 100.0 % Test CRC 05C5E7A5 Copy CRC 05C5E7A5 Accurately ripped (confidence 2) [1B2A012C] Copy OK
Track 9
Filename J:\New Rips\Earl Thomas - Blue Not Blues (1991) [FLAC]\09 - Baby Please Don't Cry.wav
Pre-gap length 0:00:02.05
Peak level 100.0 % Extraction speed 7.7 X Track quality 100.0 % Test CRC 377B5690 Copy CRC 377B5690 Accurately ripped (confidence 2) [9488FFD0] Copy OK
Track 10
Filename J:\New Rips\Earl Thomas - Blue Not Blues (1991) [FLAC]\10 - I Won't Be Around.wav
Pre-gap length 0:00:03.32
Peak level 100.0 % Extraction speed 7.8 X Track quality 100.0 % Test CRC E84E6441 Copy CRC E84E6441 Accurately ripped (confidence 2) [570DF1B3] Copy OK
All tracks accurately ripped
No errors occurred
End of status report
==== Log checksum 66C1C3A2868AEA57997353EA6F7D526506A1E189C2E3C7CB5A3C094D39CDA1F7 ====

Содержание индексной карты (.CUE)

REM GENRE SoulREM DATE 1991REM DISCID 7C0A360AREM COMMENT "ExactAudioCopy v1.0b1"PERFORMER "Earl Thomas"TITLE "Blue Not Blues"FILE "01 - I Sing The Blues.flac" WAVE  TRACK 01 AUDIO    TITLE "I Sing The Blues"    PERFORMER "Earl Thomas"    PREGAP 00:00:50    INDEX 01 00:00:00  TRACK 02 AUDIO    TITLE "What I've Got To Do"    PERFORMER "Earl Thomas"    FLAGS DCP    INDEX 00 05:22:17FILE "02 - What I've Got To Do.flac" WAVE    INDEX 01 00:00:00  TRACK 03 AUDIO    TITLE "I Ain't Ready"    PERFORMER "Earl Thomas"    FLAGS DCP    INDEX 00 04:33:10FILE "03 - I Ain't Ready.flac" WAVE    INDEX 01 00:00:00  TRACK 04 AUDIO    TITLE "Your Love"    PERFORMER "Earl Thomas"    FLAGS DCP    INDEX 00 04:01:70FILE "04 - Your Love.flac" WAVE    INDEX 01 00:00:00  TRACK 05 AUDIO    TITLE "I'll Be Here"    PERFORMER "Earl Thomas"    FLAGS DCP    INDEX 00 03:42:67FILE "05 - I'll Be Here.flac" WAVE    INDEX 01 00:00:00  TRACK 06 AUDIO    TITLE "Nothing Left To Lose"    PERFORMER "Earl Thomas"    FLAGS DCP    INDEX 00 04:24:37FILE "06 - Nothing Left To Lose.flac" WAVE    INDEX 01 00:00:00  TRACK 07 AUDIO    TITLE "The Way She Shakes That Thang"    PERFORMER "Earl Thomas"    FLAGS DCP    INDEX 00 03:46:70FILE "07 - The Way She Shakes That Thang.flac" WAVE    INDEX 01 00:00:00  TRACK 08 AUDIO    TITLE "Special Lovin"    PERFORMER "Earl Thomas"    FLAGS DCP    INDEX 00 05:15:30FILE "08 - Special Lovin.flac" WAVE    INDEX 01 00:00:00  TRACK 09 AUDIO    TITLE "Baby Please Don't Cry"    PERFORMER "Earl Thomas"    FLAGS DCP    INDEX 00 03:53:42FILE "09 - Baby Please Don't Cry.flac" WAVE    INDEX 01 00:00:00  TRACK 10 AUDIO    TITLE "I Won't Be Around"    PERFORMER "Earl Thomas"    FLAGS DCP    INDEX 00 04:29:18FILE "10 - I Won't Be Around.flac" WAVE    INDEX 01 00:00:00

If you like the topic, please click share to help develop our site.

To download the file disable ad blocking, and reload the page.

disable adblock How to disable ad blocking?

Download by magnet link 295 MB Download Torrent

Login using:

Similar topics



   
Current time is: 20-Jul 00:04 :: All times are UTC + 3