Brooks, Hunter & WalkerLone Star Shootout -
Жанр: modern electric blues, chicago blues, swamp blues
Страна-производитель диска: USA
Год издания: 1999
Издатель (лейбл): Alligator
Номер по каталогу: 4866
Страна: USA
Аудиокодек: FLAC (*.flac)
Тип рипа: image+.cue
Битрейт аудио: lossless
Продолжительность: 63'39"
Источник (релизер): собственный диск
Наличие сканов в содержимом раздачи: 600dpi, JPG
-Треклист:


01. Roll, Roll, Roll (3:22)
02. Boogie Rambler (3:09)
03. A Little More Time (4:21)
04. Bon Ton Roulet (3:54)
05. Feel Good Doin' Bad (4:15)
06. Alligators Around My Door (5:18)
07. Street Walking Woman (4:22)
08. This Should Go On Forever (3:40)
09. You're Playing Hooky (3:21)
10. Born In Louisiana (5:08)
11. Quit My Baby (4:11)
12. I Can't Stand It No More (3:54)
13. I Met the Blues In Person (5:01)
14. It's Mighty Crazy (3:46)
15. Two Trains Running (5:57)
-

xld

X Lossless Decoder version 20181019 (151.1)
XLD extraction logfile from 2019-02-24 18:32:17 +0400
Lonnie Brooks, Long John Hunter & Phillip Walker / Lone Star Shootout
Used drive : HL-DT-ST DVD-RW GH61N (revision PA03)Media type : Pressed CD
Ripper mode : XLD Secure RipperDisable audio cache : OK for the drive with a cache less than 1375KiBMake use of C2 pointers : NORead offset correction : 667Max retry count : 20Gap status : Analyzed, Appended
TOC of the extracted CD Track | Start | Length | Start sector | End sector --------------------------------------------------------- 1 | 00:00:00 | 03:22:34 | 0 | 15183 2 | 03:22:34 | 03:09:03 | 15184 | 29361 3 | 06:31:37 | 04:21:18 | 29362 | 48954 4 | 10:52:55 | 03:53:42 | 48955 | 66471 5 | 14:46:22 | 04:14:58 | 66472 | 85579 6 | 19:01:05 | 05:18:00 | 85580 | 109429 7 | 24:19:05 | 04:22:32 | 109430 | 129111 8 | 28:41:37 | 03:39:63 | 129112 | 145599 9 | 32:21:25 | 03:21:20 | 145600 | 160694 10 | 35:42:45 | 05:08:00 | 160695 | 183794 11 | 40:50:45 | 04:10:70 | 183795 | 202614 12 | 45:01:40 | 03:54:27 | 202615 | 220191 13 | 48:55:67 | 05:01:25 | 220192 | 242791 14 | 53:57:17 | 03:46:17 | 242792 | 259758 15 | 57:43:34 | 05:56:38 | 259759 | 286496
AccurateRip Summary (DiscID: 00215b38-017e8f39-cd0eeb0f) Track 01 : OK (v1+v2, confidence 18/18) Track 02 : OK (v1+v2, confidence 18/18) Track 03 : OK (v1+v2, confidence 18/18) Track 04 : OK (v1+v2, confidence 18/18) Track 05 : OK (v1+v2, confidence 18/18) Track 06 : OK (v1+v2, confidence 18/18) Track 07 : OK (v1+v2, confidence 18/18) Track 08 : OK (v1+v2, confidence 18/18) Track 09 : OK (v1+v2, confidence 18/18) Track 10 : OK (v1+v2, confidence 18/18) Track 11 : OK (v1+v2, confidence 18/18) Track 12 : OK (v1+v2, confidence 18/18) Track 13 : OK (v1+v2, confidence 18/18) Track 14 : OK (v1+v2, confidence 18/18) Track 15 : OK (v1+v2, confidence 18/18) ->All tracks accurately ripped.
All Tracks Filename : /Volumes/FILE3/Audio/SWF/ CD/Brooks, Hunter & Walker/1999. Brooks, Hunter & Walker - Lone Star Shootout (Alligator, ALCD 4866, USA)/Lone Star Shootout.flac Album gain : -4.36 dB Peak : 0.999969 CRC32 hash (test run) : B4AB4555 CRC32 hash : B4AB4555 CRC32 hash (skip zero) : 524D38D2 Statistics Read error : 0 Jitter error (maybe fixed) : 0 Retry sector count : 0 Damaged sector count : 0
Track 01 Pre-gap length : 00:02:00
Track gain : -5.25 dB Peak : 0.999969 CRC32 hash (test run) : 7E25561D CRC32 hash : 7E25561D CRC32 hash (skip zero) : D7D4B0E9 AccurateRip v1 signature : F8B32B4D AccurateRip v2 signature : 3C93C118 ->Accurately ripped (v1+v2, confidence 11+7/18) Statistics Read error : 0 Jitter error (maybe fixed) : 0 Retry sector count : 0 Damaged sector count : 0
Track 02
Track gain : -4.20 dB Peak : 0.773712 CRC32 hash (test run) : 0687E879 CRC32 hash : 0687E879 CRC32 hash (skip zero) : 7ABDC84F AccurateRip v1 signature : B5D8E1ED AccurateRip v2 signature : CC22202C ->Accurately ripped (v1+v2, confidence 11+7/18) Statistics Read error : 0 Jitter error (maybe fixed) : 0 Retry sector count : 0 Damaged sector count : 0
Track 03
Track gain : -5.55 dB Peak : 0.999969 CRC32 hash (test run) : 55E8ABF0 CRC32 hash : 55E8ABF0 CRC32 hash (skip zero) : D5D6BE85 AccurateRip v1 signature : 819AE436 AccurateRip v2 signature : 6EE9CEAB ->Accurately ripped (v1+v2, confidence 11+7/18) Statistics Read error : 0 Jitter error (maybe fixed) : 0 Retry sector count : 0 Damaged sector count : 0
Track 04
Track gain : -4.10 dB Peak : 0.999969 CRC32 hash (test run) : 3116855A CRC32 hash : 3116855A CRC32 hash (skip zero) : ABC7C40B AccurateRip v1 signature : CA341674 AccurateRip v2 signature : 67333732 ->Accurately ripped (v1+v2, confidence 11+7/18) Statistics Read error : 0 Jitter error (maybe fixed) : 0 Retry sector count : 0 Damaged sector count : 0
Track 05
Track gain : -6.51 dB Peak : 0.999969 CRC32 hash (test run) : 2F324664 CRC32 hash : 2F324664 CRC32 hash (skip zero) : 690C3E1B AccurateRip v1 signature : B65FFFC5 AccurateRip v2 signature : ABA54B3E ->Accurately ripped (v1+v2, confidence 11+7/18) Statistics Read error : 0 Jitter error (maybe fixed) : 0 Retry sector count : 0 Damaged sector count : 0
Track 06
Track gain : -3.35 dB Peak : 0.869873 CRC32 hash (test run) : 1B70B45E CRC32 hash : 1B70B45E CRC32 hash (skip zero) : D5F787C0 AccurateRip v1 signature : DAA102EF AccurateRip v2 signature : BCD7132E ->Accurately ripped (v1+v2, confidence 11+7/18) Statistics Read error : 0 Jitter error (maybe fixed) : 0 Retry sector count : 0 Damaged sector count : 0
Track 07
Track gain : -4.30 dB Peak : 0.945221 CRC32 hash (test run) : 0147D892 CRC32 hash : 0147D892 CRC32 hash (skip zero) : 0D865DCC AccurateRip v1 signature : 6578FD6A AccurateRip v2 signature : 6C10547D ->Accurately ripped (v1+v2, confidence 11+7/18) Statistics Read error : 0 Jitter error (maybe fixed) : 0 Retry sector count : 0 Damaged sector count : 0
Track 08
Track gain : -3.67 dB Peak : 0.999969 CRC32 hash (test run) : 0435B175 CRC32 hash : 0435B175 CRC32 hash (skip zero) : BAD553EE AccurateRip v1 signature : 9D966342 AccurateRip v2 signature : E5683522 ->Accurately ripped (v1+v2, confidence 11+7/18) Statistics Read error : 0 Jitter error (maybe fixed) : 0 Retry sector count : 0 Damaged sector count : 0
Track 09
Track gain : -5.03 dB Peak : 0.981598 CRC32 hash (test run) : 607197CB CRC32 hash : 607197CB CRC32 hash (skip zero) : 44AD0950 AccurateRip v1 signature : 545E7F58 AccurateRip v2 signature : 277F6DB3 ->Accurately ripped (v1+v2, confidence 11+7/18) Statistics Read error : 0 Jitter error (maybe fixed) : 0 Retry sector count : 0 Damaged sector count : 0
Track 10
Track gain : -3.73 dB Peak : 0.938385 CRC32 hash (test run) : 28470648 CRC32 hash : 28470648 CRC32 hash (skip zero) : 32D84B43 AccurateRip v1 signature : 3D3CC1E8 AccurateRip v2 signature : 37A4C6C9 ->Accurately ripped (v1+v2, confidence 11+7/18) Statistics Read error : 0 Jitter error (maybe fixed) : 0 Retry sector count : 0 Damaged sector count : 0
Track 11
Track gain : -4.30 dB Peak : 0.842529 CRC32 hash (test run) : 9B695FAC CRC32 hash : 9B695FAC CRC32 hash (skip zero) : D7C1F345 AccurateRip v1 signature : 573744D6 AccurateRip v2 signature : C60BEEA1 ->Accurately ripped (v1+v2, confidence 11+7/18) Statistics Read error : 0 Jitter error (maybe fixed) : 0 Retry sector count : 0 Damaged sector count : 0
Track 12
Track gain : -4.27 dB Peak : 0.999969 CRC32 hash (test run) : B5EF9649 CRC32 hash : B5EF9649 CRC32 hash (skip zero) : A2644DAF AccurateRip v1 signature : 42D717E7 AccurateRip v2 signature : 53324A18 ->Accurately ripped (v1+v2, confidence 11+7/18) Statistics Read error : 0 Jitter error (maybe fixed) : 0 Retry sector count : 0 Damaged sector count : 0
Track 13
Track gain : -3.58 dB Peak : 0.903381 CRC32 hash (test run) : 6DF5B10E CRC32 hash : 6DF5B10E CRC32 hash (skip zero) : 93DB847D AccurateRip v1 signature : 4841BB3D AccurateRip v2 signature : 248932B7 ->Accurately ripped (v1+v2, confidence 11+7/18) Statistics Read error : 0 Jitter error (maybe fixed) : 0 Retry sector count : 0 Damaged sector count : 0
Track 14
Track gain : -4.88 dB Peak : 0.999969 CRC32 hash (test run) : C6FFB8F9 CRC32 hash : C6FFB8F9 CRC32 hash (skip zero) : 274D5FE8 AccurateRip v1 signature : 972F4958 AccurateRip v2 signature : DBA01825 ->Accurately ripped (v1+v2, confidence 11+7/18) Statistics Read error : 0 Jitter error (maybe fixed) : 0 Retry sector count : 0 Damaged sector count : 0
Track 15
Track gain : -2.06 dB Peak : 0.999969 CRC32 hash (test run) : E63ADFED CRC32 hash : E63ADFED CRC32 hash (skip zero) : 168962A0 AccurateRip v1 signature : EAB59F52 AccurateRip v2 signature : A3DA6B0F ->Accurately ripped (v1+v2, confidence 11+7/18) Statistics Read error : 0 Jitter error (maybe fixed) : 0 Retry sector count : 0 Damaged sector count : 0
No errors occurred
End of status report
-----BEGIN XLD SIGNATURE-----3.fCgc7jxRyiTjtXsvHQWd1qQqp6VtmCyOixLztohZ5RDsFCiG5K_N3HZXy1G5y0ZhvKZ2NeHdzlakVqe8NrfbnMVvVUu4KAWuP5WDu-----END XLD SIGNATURE-----
-

.cue

TITLE "Lone Star Shootout"PERFORMER "Lonnie Brooks, Long John Hunter & Phillip Walker"REM GENRE "Blues"REM DATE "1999"REM DISCID CD0EEB0FREM REPLAYGAIN_ALBUM_GAIN -4.36 dBREM REPLAYGAIN_ALBUM_PEAK 0.999969FILE "Lone Star Shootout.flac" WAVE  TRACK 01 AUDIO    TITLE "Roll, Roll, Roll"    REM REPLAYGAIN_TRACK_GAIN -5.25 dB    REM REPLAYGAIN_TRACK_PEAK 0.999969    INDEX 01 00:00:00  TRACK 02 AUDIO    TITLE "Boogie Rambler"    REM REPLAYGAIN_TRACK_GAIN -4.20 dB    REM REPLAYGAIN_TRACK_PEAK 0.773712    INDEX 01 03:22:34  TRACK 03 AUDIO    TITLE "A Little More Time"    REM REPLAYGAIN_TRACK_GAIN -5.55 dB    REM REPLAYGAIN_TRACK_PEAK 0.999969    INDEX 01 06:31:37  TRACK 04 AUDIO    TITLE "Bon Ton Roulet"    REM REPLAYGAIN_TRACK_GAIN -4.10 dB    REM REPLAYGAIN_TRACK_PEAK 0.999969    INDEX 01 10:52:55  TRACK 05 AUDIO    TITLE "Feel Good Doin' Bad"    REM REPLAYGAIN_TRACK_GAIN -6.51 dB    REM REPLAYGAIN_TRACK_PEAK 0.999969    INDEX 01 14:46:22  TRACK 06 AUDIO    TITLE "Alligators Around My Door"    REM REPLAYGAIN_TRACK_GAIN -3.35 dB    REM REPLAYGAIN_TRACK_PEAK 0.869873    INDEX 01 19:01:05  TRACK 07 AUDIO    TITLE "Street Walking Woman"    REM REPLAYGAIN_TRACK_GAIN -4.30 dB    REM REPLAYGAIN_TRACK_PEAK 0.945221    INDEX 01 24:19:05  TRACK 08 AUDIO    TITLE "This Should Go On Forever"    REM REPLAYGAIN_TRACK_GAIN -3.67 dB    REM REPLAYGAIN_TRACK_PEAK 0.999969    INDEX 01 28:41:37  TRACK 09 AUDIO    TITLE "You're Playin' Hooky"    REM REPLAYGAIN_TRACK_GAIN -5.03 dB    REM REPLAYGAIN_TRACK_PEAK 0.981598    INDEX 01 32:21:25  TRACK 10 AUDIO    TITLE "Born In Louisiana"    REM REPLAYGAIN_TRACK_GAIN -3.73 dB    REM REPLAYGAIN_TRACK_PEAK 0.938385    INDEX 01 35:42:45  TRACK 11 AUDIO    TITLE "Quit My Baby"    REM REPLAYGAIN_TRACK_GAIN -4.30 dB    REM REPLAYGAIN_TRACK_PEAK 0.842529    INDEX 01 40:50:45  TRACK 12 AUDIO    TITLE "I Can't Stand It No More"    REM REPLAYGAIN_TRACK_GAIN -4.27 dB    REM REPLAYGAIN_TRACK_PEAK 0.999969    INDEX 01 45:01:40  TRACK 13 AUDIO    TITLE "I Met The Blues In Person"    REM REPLAYGAIN_TRACK_GAIN -3.58 dB    REM REPLAYGAIN_TRACK_PEAK 0.903381    INDEX 01 48:55:67  TRACK 14 AUDIO    TITLE "It's Mighty Crazy"    REM REPLAYGAIN_TRACK_GAIN -4.88 dB    REM REPLAYGAIN_TRACK_PEAK 0.999969    INDEX 01 53:57:17  TRACK 15 AUDIO    TITLE "Two Trains Running"    REM REPLAYGAIN_TRACK_GAIN -2.06 dB    REM REPLAYGAIN_TRACK_PEAK 0.999969    INDEX 01 57:43:34
-

matrix

-

Каталог 'Alligator Records' (ссылки на альбомы)-

If you like the topic, please click share to help develop our site.

To download the file disable ad blocking, and reload the page.

disable adblock How to disable ad blocking?

Download by magnet link 554 MB Download Torrent

Login using:

Similar topics



   
Current time is: 20-Jul 11:18 :: All times are UTC + 3