Pristine

No Regret





• Жанр: Blues Rock
• Носитель: WEB
• Год издания: 2013
• Страна: Norway
• Аудиокодек: FLAC (*.flac)
• Тип рипа: tracks
• Продолжительность: 00:39:49
• Источник:
internet
• Наличие сканов: front

01 - Carry Your Own Weight (00:04:12)
02 - She Won (00:02:46)
03 - Tell Me (00:03:13)
04 - The Occasional Wife (00:05:29)
05 - One Good Reason (00:04:03)
06 - No Regret (00:08:02)
07 - Pistols & Petticoats (00:03:47)
08 - One Good Reason (00:03:49)
09 - Beyond Retreat (00:04:24)
--

• Лог DRM •

foobar2000 1.4.2 / Dynamic Range Meter 1.1.1log date: 2019-05-11 14:31:04
--------------------------------------------------------------------------------Analyzed: Pristine, Bjørn Berge / No Regret (1) Pristine / No Regret (2-9)--------------------------------------------------------------------------------
DR Peak RMS Duration Track--------------------------------------------------------------------------------DR9 -0.10 dB -11.52 dB 3:50 08-One Good ReasonDR8 -0.10 dB -8.78 dB 4:13 01-Carry Your Own WeightDR7 -0.10 dB -8.56 dB 2:46 02-She WonDR6 -0.10 dB -8.05 dB 3:14 03-Tell MeDR8 -0.10 dB -10.47 dB 5:29 04-The Occasional WifeDR7 -0.10 dB -8.82 dB 4:04 05-One Good ReasonDR7 -0.10 dB -10.20 dB 8:03 06-No RegretDR8 -0.10 dB -9.65 dB 3:48 07-Pistols & PetticoatsDR8 -0.10 dB -11.44 dB 4:25 09-Beyond Retreat--------------------------------------------------------------------------------
Number of tracks: 9Official DR value: DR8
Samplerate: 44100 HzChannels: 2Bits per sample: 16Bitrate: 746 kbpsCodec: FLAC================================================================================
-

• Лог проверки качества •

-----------------------
DON'T MODIFY THIS FILE
-----------------------
PERFORMER: auCDtect Task Manager, ver. 1.6.0 RC1 build 1.6.0.1Copyright (c) 2008-2010 y-soft. All rights reservedhttp://y-soft.org
ANALYZER: auCDtect: CD records authenticity detector, version 0.8.2Copyright (c) 2004 Oleg Berngardt. All rights reserved.Copyright (c) 2004 Alexander Djourik. All rights reserved.
FILE: 09 - Beyond Retreat.flac Size: 24789286 Hash: 54C6435207CACA70D0DC06DAFE2F2E16 Accuracy: -m0 Conclusion: CDDA 100% Signature: 64090687180165BA955611F644B9F6A570DC8AE3FILE: 08 - One Good Reason.flac Size: 25489008 Hash: 6BDA5DCE11D5912AD8B7A84D30BE9446 Accuracy: -m0 Conclusion: CDDA 100% Signature: 4D2F5F6AB93BBC566433075A4921928394D5BB4FFILE: 07 - Pistols & Petticoats.flac Size: 25843814 Hash: 3C01D6BE3FE4DF09DA2AD872DB519015 Accuracy: -m0 Conclusion: CDDA 100% Signature: 87FC1264554C8AB38CA1D97EDBE32C5AF2BFD200FILE: 06 - No Regret.flac Size: 46719672 Hash: A39DA00948655551EF5B3EB95B5788A0 Accuracy: -m0 Conclusion: CDDA 100% Signature: E97C102BABECFFE5BD7405AD3DAC0B5244AF3059FILE: 05 - One Good Reason.flac Size: 28406915 Hash: D9B838E776648793C9CB52D595A45E53 Accuracy: -m0 Conclusion: CDDA 100% Signature: 020A400DBE2E78FC2F01AD52C6BDCE17D0D34106FILE: 04 - The Occasional Wife.flac Size: 31681484 Hash: E660FAE95CB31A78D1D06CFC210BF704 Accuracy: -m0 Conclusion: CDDA 100% Signature: FCA986F9750C0B7DD07E91EFF6BFF3A669CA3979FILE: 03 - Tell Me.flac Size: 21630446 Hash: A7526CFC2B9CA6880CAE396BCA4941DE Accuracy: -m0 Conclusion: CDDA 100% Signature: 1DC984902C8A30DC3EEF82DF1DC89D5F607C7504FILE: 02 - She Won.flac Size: 19738910 Hash: 7C5FFF84771F0886618C9A0C52AB2593 Accuracy: -m0 Conclusion: CDDA 100% Signature: 6A0D731E10990B55AAA4D84B969EF77FBA317613FILE: 01 - Carry Your Own Weight.flac Size: 30168681 Hash: 1CA27D73BCAB26596D513A35552B8B8B Accuracy: -m0 Conclusion: CDDA 100% Signature: 2231895EEF91160C6DD5DD705611D5308D6D38B4
-

If you like the topic, please click share to help develop our site.

To download the file disable ad blocking, and reload the page.

disable adblock How to disable ad blocking?

Download by magnet link 243 MB Download Torrent

Login using:

Similar topics



   
Current time is: 17-Jul 05:19 :: All times are UTC + 3