Pristine

Detoxing





• Жанр: Blues Rock
• Носитель: WEB
• Год издания: 2011
• Страна: Norway
• Аудиокодек: FLAC (*.flac)
• Тип рипа: tracks
• Продолжительность: 00:54:07
• Источник:
internet
• Наличие сканов: front

01 - Damned If I Do (00:09:17)
02 - You Don't Know (00:04:39)
03 - Breaking Bad (00:03:41)
04 - Whipping Post (00:05:32)
05 - The Countdown (00:03:40)
06 - Damage Is Done (00:02:12)
07 - The Last Day (00:08:20)
08 - Detoxing (00:11:17)
09 - The Blind (00:05:24)
--

• Лог DRM •

foobar2000 1.4.2 / Dynamic Range Meter 1.1.1log date: 2019-05-11 14:30:47
--------------------------------------------------------------------------------Analyzed: Pristine / Detoxing--------------------------------------------------------------------------------
DR Peak RMS Duration Track--------------------------------------------------------------------------------DR7 -0.25 dB -10.72 dB 9:17 01-Damned If I DoDR8 -0.20 dB -10.76 dB 4:40 02-You Don't KnowDR8 -0.24 dB -8.85 dB 3:42 03-Breaking BadDR9 -0.44 dB -12.12 dB 5:32 04-Whipping PostDR7 -0.25 dB -8.45 dB 3:41 05-The CountdownDR9 -0.38 dB -11.34 dB 2:13 06-Damage Is DoneDR8 -0.05 dB -10.51 dB 8:21 07-The Last DayDR6 -0.25 dB -7.86 dB 11:17 08-DetoxingDR7 -0.25 dB -8.61 dB 5:24 09-The Blind--------------------------------------------------------------------------------
Number of tracks: 9Official DR value: DR8
Samplerate: 44100 HzChannels: 2Bits per sample: 16Bitrate: 992 kbpsCodec: FLAC================================================================================
-

• Лог проверки качества •

-----------------------
DON'T MODIFY THIS FILE
-----------------------
PERFORMER: auCDtect Task Manager, ver. 1.6.0 RC1 build 1.6.0.1Copyright (c) 2008-2010 y-soft. All rights reservedhttp://y-soft.org
ANALYZER: auCDtect: CD records authenticity detector, version 0.8.2Copyright (c) 2004 Oleg Berngardt. All rights reserved.Copyright (c) 2004 Alexander Djourik. All rights reserved.
FILE: 09 - The Blind.flac Size: 40289793 Hash: 081A2957563DD5843C1867EF46CF289F Accuracy: -m0 Conclusion: CDDA 100% Signature: 0D3D56848D1055B4EC04317A397630A16B3C56C3FILE: 08 - Detoxing.flac Size: 86692301 Hash: FAC46AAC98157F3A4ECC79497EB2B49B Accuracy: -m0 Conclusion: CDDA 100% Signature: 596E79B6107EE178CF03CD5AB4AD481FF94390F5FILE: 07 - The Last Day.flac Size: 49786552 Hash: 9256D647A6A81CD1CCCB59B941ACCDE1 Accuracy: -m0 Conclusion: CDDA 100% Signature: F23FB89A0961F9ECE1450598BF62C63F687AA15DFILE: 06 - Damage Is Done.flac Size: 13949461 Hash: BA0469E933C8BCE616F0901A47206C02 Accuracy: -m0 Conclusion: CDDA 100% Signature: 334C5C85AB15A6927C763C34B37DD5E0C18CD3E4FILE: 05 - The Countdown.flac Size: 24139704 Hash: 623E5FF12C5932EFC46B7DDB11C4FBBC Accuracy: -m0 Conclusion: CDDA 100% Signature: 4168A781027FE07241A53A91066C7F40D043E724FILE: 04 - Whipping Post.flac Size: 28947368 Hash: 8C0165E70C74A62A04D8386373E4D469 Accuracy: -m0 Conclusion: CDDA 100% Signature: A30D60AD63E216F963BB04BD291601875CC2E739FILE: 03 - Breaking Bad.flac Size: 26909753 Hash: 44ED71877D3244B6CF516B1773DDCD05 Accuracy: -m0 Conclusion: CDDA 100% Signature: 3E8E95B61295962525EC56F0AD6EE68A8AD916A9FILE: 02 - You Don't Know.flac Size: 27764312 Hash: CF172666054DAB38ACA41AC9B3416027 Accuracy: -m0 Conclusion: CDDA 100% Signature: 16C9BBA9045F2BDA6400477DC792A31E5D5A8DA9FILE: 01 - Damned If I Do.flac Size: 55094501 Hash: 75691609014D476939AB033FCC3D00A3 Accuracy: -m0 Conclusion: CDDA 99% Signature: 0C9BC05FB2028954117230116D2D152988F77A95
-

If you like the topic, please click share to help develop our site.

To download the file disable ad blocking, and reload the page.

disable adblock How to disable ad blocking?

Download by magnet link 338 MB Download Torrent

Login using:

Similar topics



   
Current time is: 20-Jul 10:24 :: All times are UTC + 3