Pristine

Road Back to Ruin





• Жанр: Blues Rock
• Носитель: WEB
• Год издания: 2019
• Страна: Norway
• Аудиокодек: FLAC (*.flac)
• Тип рипа: tracks
• Продолжительность: 00:55:10
• Источник:
internet
• Наличие сканов: front

01 - Sinnerman (00:03:07)
02 - Road Back to Ruin (00:04:50)
03 - Bluebird (00:05:31)
04 - Landslide (00:03:27)
05 - Aurora Skies (00:05:04)
06 - Pioneer (00:03:02)
07 - Blind Spot (00:07:05)
08 - The Sober (00:03:35)
09 - Cause and Effect (00:06:16)
10 - Your Song (00:03:01)
11 - Dead End (00:02:34)
12 - Ghost Chase (Live) (00:07:33)
--

• Лог DRM •

foobar2000 1.4.2 / Dynamic Range Meter 1.1.1log date: 2019-05-11 14:31:14
--------------------------------------------------------------------------------Analyzed: Pristine / Road Back to Ruin--------------------------------------------------------------------------------
DR Peak RMS Duration Track--------------------------------------------------------------------------------DR6 0.00 dB -6.98 dB 3:07 01-SinnermanDR6 -0.38 dB -7.09 dB 4:50 02-Road Back to RuinDR6 -0.36 dB -7.81 dB 5:32 03-BluebirdDR6 0.00 dB -7.63 dB 3:28 04-LandslideDR8 -0.41 dB -11.02 dB 5:05 05-Aurora SkiesDR6 -0.13 dB -7.54 dB 3:02 06-PioneerDR7 -0.18 dB -9.78 dB 7:06 07-Blind SpotDR6 -0.41 dB -7.71 dB 3:35 08-The SoberDR7 -0.15 dB -8.94 dB 6:16 09-Cause and EffectDR8 -0.44 dB -10.24 dB 3:01 10-Your SongDR6 -0.40 dB -7.62 dB 2:35 11-Dead EndDR7 0.00 dB -10.18 dB 7:33 12-Ghost Chase (Live)--------------------------------------------------------------------------------
Number of tracks: 12Official DR value: DR6
Samplerate: 44100 HzChannels: 2Bits per sample: 16Bitrate: 849 kbpsCodec: FLAC================================================================================
-

• Лог проверки качества •

-----------------------
DON'T MODIFY THIS FILE
-----------------------
PERFORMER: auCDtect Task Manager, ver. 1.6.0 RC1 build 1.6.0.1Copyright (c) 2008-2010 y-soft. All rights reservedhttp://y-soft.org
ANALYZER: auCDtect: CD records authenticity detector, version 0.8.2Copyright (c) 2004 Oleg Berngardt. All rights reserved.Copyright (c) 2004 Alexander Djourik. All rights reserved.
FILE: 12 - Ghost Chase (Live).flac Size: 48170630 Hash: 67C094DFFDB3C4AA2B487C53E1B5B0C4 Accuracy: -m8 Conclusion: CDDA 100% Signature: 72D44C28D4932A5CBE1C4EB91FAF0235AD7C19B8FILE: 11 - Dead End.flac Size: 17000637 Hash: 33D090E23325B31A9F00751DE9505618 Accuracy: -m8 Conclusion: CDDA 99% Signature: FB9A6D1ECF2F2F29C6340DC93943548D9DB78EC0FILE: 10 - Your Song.flac Size: 16475206 Hash: D39AFC9BA9A7633BD06FE8F0FF4420A2 Accuracy: -m8 Conclusion: CDDA 100% Signature: 54B9795CE3E8A18B25616B85DE9AF63C872DAE82FILE: 09 - Cause and Effect.flac Size: 41092061 Hash: 8E05B2C9B4CA0088D068B620D23500FD Accuracy: -m8 Conclusion: CDDA 100% Signature: 4D4AAB688A41B93E11962D059C7C3C82A88EEB90FILE: 08 - The Sober.flac Size: 25143341 Hash: DADFF8E8E59399ED7259D148EEC9FBA5 Accuracy: -m8 Conclusion: CDDA 100% Signature: B2BDAE2D0BE7CA7AAE58BF55F41C0496C2718DABFILE: 07 - Blind Spot.flac Size: 46704216 Hash: 63C0E5419F01C498CF8B27C38C331F48 Accuracy: -m8 Conclusion: CDDA 100% Signature: B42FC4945FDF62737BE6F5D9E1881E605018A355FILE: 06 - Pioneer.flac Size: 20869327 Hash: 76C486DEEACA330DFAB9962D61FC0EEC Accuracy: -m8 Conclusion: CDDA 100% Signature: 71837CC3DDCF54DA5C5CE69C6FC1E13517A3B3A4FILE: 05 - Aurora Skies.flac Size: 31693289 Hash: 7FD6D3C5A93837A06A4097B72F7B17DD Accuracy: -m8 Conclusion: CDDA 100% Signature: 4AC128F487C4B13B39B317FBD6E407C8074A1402FILE: 04 - Landslide.flac Size: 24856107 Hash: 712EA0397822E2ACCFAA2155F2ECCD65 Accuracy: -m8 Conclusion: CDDA 100% Signature: AC30B64B620AF66887DC606A1E506D7F9FE6B503FILE: 03 - Bluebird.flac Size: 38518021 Hash: 92A79C86924EBAB2072A383A242E897D Accuracy: -m8 Conclusion: CDDA 100% Signature: 43FA1B6D3D3A050596F6E5D08EBE289CAF2783A9FILE: 02 - Road Back to Ruin.flac Size: 34555927 Hash: 4B8729EB7D20740DFF6D796D5A834CF4 Accuracy: -m8 Conclusion: CDDA 100% Signature: D8728C4A3A4617E8AB36C8E93DF9476642A58E78FILE: 01 - Sinnerman.flac Size: 22948659 Hash: DE96951F2DEC8FDECCA2842E7909631D Accuracy: -m8 Conclusion: CDDA 100% Signature: 1C862ADECB6A3D98AA8C10EE5844985D8C5ADBBE
-

If you like the topic, please click share to help develop our site.

To download the file disable ad blocking, and reload the page.

disable adblock How to disable ad blocking?

Download by magnet link 352 MB Download Torrent

Login using:

Similar topics



   
Current time is: 20-Jul 00:12 :: All times are UTC + 3