Teaze / One Night Stands

Жанр: Hard Rock
Носитель: CD
Страна-производитель диска (релиза): Russia (Reissue, Remastered, Unofficial Release)
Год издания: 2019
Издатель (лейбл): Rock Candy
Номер по каталогу: CANDY060
Страна исполнителя (группы): Canada
Аудиокодек: FLAC (*.flac)
Тип рипа: image+.cue
Продолжительность: 00:42:21
Источник: собственный диск и рип
Наличие сканов в содержимом раздачи: да
Треклист:
01. Back In Action (3:31)
02. Young And Reckless (4:03)
03. Heartless World (5:44)
04. Boys Night Out (4:20)
05. Through The Years (4:19)
06. Reach Out (3:48)
07. Stay Here (3:38)
08. Red Hot Ready (3:36)
09. Touch The Wind (5:10)
10. Loose Change (Bonus Track) (4:11)

Лог создания рипа

Exact Audio Copy V1.3 from 2. September 2016
Отчёт EAC об извлечении, выполненном 7. мая 2019, 11:19
Teaze / One Night Stands (2019, CANDY060)
Дисковод: TSSTcorpCDDVDW SH-S222A Adapter: 1 ID: 0
Режим чтения : ДостоверностьИспользование точного потока : ДаОтключение кэша аудио : ДаИспользование указателей C2 : Нет
Коррекция смещения при чтении : 6Способность читать области Lead-in и Lead-out : НетЗаполнение пропущенных сэмплов тишиной : ДаУдаление блоков с тишиной в начале и конце : НетПри вычислениях CRC использовались нулевые сэмплы : ДаИнтерфейс : Встроенный Win32-интерфейс для Win NT/2000
Выходной формат : Пользовательский кодировщикВыбранный битрейт : 896 kBit/sКачество : ВысокийДобавление ID3-тега : НетУтилита сжатия : C:\Program Files\Exact Audio Copy\FLAC\FLAC.EXEДополнительные параметры : -6 -V -T "ARTIST=%artist%" -T "TITLE=%title%" -T "ALBUM=%albumtitle%" -T "DATE=%year%" -T "TRACKNUMBER=%tracknr%" -T "GENRE=%genre%" -T "COMMENT=%comment%" -T "BAND=%albuminterpret%" -T "ALBUMARTIST=%albuminterpret%" -T "COMPOSER=%composer%" %haslyrics%--tag-from-file=LYRICS="%lyricsfile%"%haslyrics% -T "DISCNUMBER=%cdnumber%" -T "TOTALDISCS=%totalcds%" -T "TOTALTRACKS=%numtracks%" %hascover%--picture="%coverfile%"%hascover% %source% -o %dest%
TOC извлечённого CD
Трек | Старт | Длительность | Начальный сектор | Конечный сектор --------------------------------------------------------------------- 1 | 0:00.00 | 3:30.39 | 0 | 15788 2 | 3:30.39 | 4:03.33 | 15789 | 34046 3 | 7:33.72 | 5:44.32 | 34047 | 59878 4 | 13:18.29 | 4:19.71 | 59879 | 79374 5 | 17:38.25 | 4:18.59 | 79375 | 98783 6 | 21:57.09 | 3:48.18 | 98784 | 115901 7 | 25:45.27 | 3:38.16 | 115902 | 132267 8 | 29:23.43 | 3:36.35 | 132268 | 148502 9 | 33:00.03 | 5:10.00 | 148503 | 171752 10 | 38:10.03 | 4:11.16 | 171753 | 190593
Характеристики диапазона извлечения и сообщения об ошибках
Выбранный диапазон
Имя файла D:\Music\Мои раздачи\Teaze - One Night Stands (2019, CANDY060).wav
Пиковый уровень 99.8 % Скорость извлечения 4.3 X Качество диапазона 100.0 % CRC теста 90A0D33A CRC копии 90A0D33A Копирование... OK
Ошибок не произошло
AccurateRip: сводка
Трек 1 точность не определена (достоверность 2) [E4C88190], AccurateRip вернул [8D3A5987] (AR v2)Трек 2 точность не определена (достоверность 2) [DA3952A9], AccurateRip вернул [2406A26F] (AR v2)Трек 3 точность не определена (достоверность 2) [5094B910], AccurateRip вернул [E7C06B05] (AR v2)Трек 4 точность не определена (достоверность 2) [7529CEB1], AccurateRip вернул [5BE666F6] (AR v2)Трек 5 точность не определена (достоверность 2) [0B4E91C2], AccurateRip вернул [4760E7C3] (AR v2)Трек 6 точность не определена (достоверность 2) [9321AD69], AccurateRip вернул [7630F2AB] (AR v2)Трек 7 точность не определена (достоверность 2) [E64D9CE5], AccurateRip вернул [1C044D2D] (AR v2)Трек 8 точность не определена (достоверность 2) [B89C52A2], AccurateRip вернул [2E26ED5F] (AR v2)Трек 9 точность не определена (достоверность 2) [7F8D9ACA], AccurateRip вернул [BD0FB26D] (AR v2)Трек 10 точность не определена (достоверность 2) [9457799E], AccurateRip вернул [70A69522] (AR v2)
Ни один трек не прошёл проверки на точностьВ вашей базе может быть иной вариант штамповки диска
Конец отчёта
---- CUETools DB Plugin V2.1.6
[CTDB TOCID: wSM80A3bu9xx5d.DZIVj.xni_9g-] foundSubmit result: wSM80A3bu9xx5d.DZIVj.xni_9g- has been confirmedTrack | CTDB Status 1 | (3/3) Accurately ripped 2 | (3/3) Accurately ripped 3 | (3/3) Accurately ripped 4 | (3/3) Accurately ripped 5 | (3/3) Accurately ripped 6 | (3/3) Accurately ripped 7 | (3/3) Accurately ripped 8 | (3/3) Accurately ripped 9 | (3/3) Accurately ripped 10 | (3/3) Accurately ripped
==== Контрольная сумма отчёта 11FFE1DB02D1CCC2DA4AF607B592A945F88D034CE41A1D89417F396B2F69822E ====

Лог проверки качества

-----------------------
DON'T MODIFY THIS FILE
-----------------------
PERFORMER: auCDtect Task Manager, ver. 1.6.0 RC1 build 1.6.0.1Copyright (c) 2008-2010 y-soft. All rights reservedhttp://y-soft.org
ANALYZER: auCDtect: CD records authenticity detector, version 0.8.2Copyright (c) 2004 Oleg Berngardt. All rights reserved.Copyright (c) 2004 Alexander Djourik. All rights reserved.
FILE: Teaze - One Night Stands (2019, CANDY060).flac Size: 318525570 Hash: BF895EE242BFD3D5BE2A1381ACB4D535 Accuracy: -m0 Conclusion: CDDA 100% Signature: 083F9456E7007C4F8047E7A540E033388D459F33

Скриншот спектра частот

Лог DRM

foobar2000 1.2.9 / Dynamic Range Meter 1.1.1log date: 2019-05-11 22:44:40
--------------------------------------------------------------------------------Analyzed: Teaze / One Night Stands (2019, CANDY060)--------------------------------------------------------------------------------
DR Peak RMS Duration Track--------------------------------------------------------------------------------DR7 -0.02 dB -8.03 dB 3:31 01-Back In ActionDR7 -0.01 dB -8.00 dB 4:03 02-Young And RecklessDR6 -0.02 dB -8.15 dB 5:44 03-Heartless WorldDR7 -0.02 dB -8.31 dB 4:20 04-Boys Night OutDR6 -0.03 dB -7.05 dB 4:19 05-Through The YearsDR6 -0.02 dB -6.75 dB 3:48 06-Reach OutDR8 -0.02 dB -9.31 dB 3:38 07-Stay HereDR7 -0.02 dB -7.42 dB 3:36 08-Red Hot ReadyDR6 -0.02 dB -7.85 dB 5:10 09-Touch The WindDR6 -0.02 dB -7.61 dB 4:11 10-Loose Change--------------------------------------------------------------------------------
Number of tracks: 10Official DR value: DR7
Samplerate: 44100 HzChannels: 2Bits per sample: 16Bitrate: 1003 kbpsCodec: FLAC================================================================================
Доп. информация: Совершенно несправедливо подзабытая группа из северной страны с предпоследним своим альбомом в небольшой, но насыщенной дискографии.

If you like the topic, please click share to help develop our site.

To download the file disable ad blocking, and reload the page.

disable adblock How to disable ad blocking?

Download by magnet link 354 MB Download Torrent

Login using:

Similar topics



   
Current time is: 20-Jul 10:14 :: All times are UTC + 3