Sacred Reign / Looking For Love

Жанр: Hard Rock/Melodic Metal | CCM
Носитель: CD
Страна-производитель диска (релиза): USA
Год издания: 1993
Издатель (лейбл): Fraternity Records
Номер по каталогу: CD-0001-SR
Страна исполнителя (группы): USA
Аудиокодек: FLAC (*.flac)
Тип рипа: image+.cue
Продолжительность: 00:31:33
Источник: собственный диск и рип
Наличие сканов в содержимом раздачи: да
Треклист:
01. Strength In Yourself (3:06)
02. Arms Open Wide (3:13)
03. Walking Alone In Moonlight (3:22)
04. Looking for Love (3:20)
05. In My Mind (3:22)
06. Someday (3:02)
07. Memory Lane (3:23)
08. Friend of Mine (3:17)
09. Broken Man (2:35)
10. Shadow of The Son (2:51)

Лог создания рипа

Exact Audio Copy V1.3 from 2. September 2016
Отчёт EAC об извлечении, выполненном 7. мая 2019, 14:01
Sacred Reign / Looking For Love
Дисковод: TSSTcorpCDDVDW SH-S222A Adapter: 1 ID: 0
Режим чтения : ДостоверностьИспользование точного потока : ДаОтключение кэша аудио : ДаИспользование указателей C2 : Нет
Коррекция смещения при чтении : 6Способность читать области Lead-in и Lead-out : НетЗаполнение пропущенных сэмплов тишиной : ДаУдаление блоков с тишиной в начале и конце : НетПри вычислениях CRC использовались нулевые сэмплы : ДаИнтерфейс : Встроенный Win32-интерфейс для Win NT/2000
Выходной формат : Пользовательский кодировщикВыбранный битрейт : 896 kBit/sКачество : ВысокийДобавление ID3-тега : НетУтилита сжатия : C:\Program Files\Exact Audio Copy\FLAC\FLAC.EXEДополнительные параметры : -6 -V -T "ARTIST=%artist%" -T "TITLE=%title%" -T "ALBUM=%albumtitle%" -T "DATE=%year%" -T "TRACKNUMBER=%tracknr%" -T "GENRE=%genre%" -T "COMMENT=%comment%" -T "BAND=%albuminterpret%" -T "ALBUMARTIST=%albuminterpret%" -T "COMPOSER=%composer%" %haslyrics%--tag-from-file=LYRICS="%lyricsfile%"%haslyrics% -T "DISCNUMBER=%cdnumber%" -T "TOTALDISCS=%totalcds%" -T "TOTALTRACKS=%numtracks%" %hascover%--picture="%coverfile%"%hascover% %source% -o %dest%
TOC извлечённого CD
Трек | Старт | Длительность | Начальный сектор | Конечный сектор --------------------------------------------------------------------- 1 | 0:00.00 | 3:06.07 | 0 | 13956 2 | 3:06.07 | 3:13.28 | 13957 | 28459 3 | 6:19.35 | 3:22.32 | 28460 | 43641 4 | 9:41.67 | 3:20.03 | 43642 | 58644 5 | 13:01.70 | 3:22.10 | 58645 | 73804 6 | 16:24.05 | 3:02.32 | 73805 | 87486 7 | 19:26.37 | 3:23.25 | 87487 | 102736 8 | 22:49.62 | 3:17.03 | 102737 | 117514 9 | 26:06.65 | 2:35.07 | 117515 | 129146 10 | 28:41.72 | 2:50.50 | 129147 | 141946
Характеристики диапазона извлечения и сообщения об ошибках
Выбранный диапазон
Имя файла D:\Music\Мои раздачи\Sacred Reign - Looking For Love.wav
Пиковый уровень 100.0 % Скорость извлечения 2.7 X Качество диапазона 100.0 % CRC теста 7F774849 CRC копии 7F774849 Копирование... OK
Ошибок не произошло
AccurateRip: сводка
Трек 1 отсутствует в базе данныхТрек 2 отсутствует в базе данныхТрек 3 отсутствует в базе данныхТрек 4 отсутствует в базе данныхТрек 5 отсутствует в базе данныхТрек 6 отсутствует в базе данныхТрек 7 отсутствует в базе данныхТрек 8 отсутствует в базе данныхТрек 9 отсутствует в базе данныхТрек 10 отсутствует в базе данных
Ни одного трека нет в базе AccurateRip
Конец отчёта
---- CUETools DB Plugin V2.1.6
[CTDB TOCID: MSCNoTIZBVqgXJhSGJSMs6.POSw-] disk not present in databaseSubmit result: MSCNoTIZBVqgXJhSGJSMs6.POSw- has been uploaded
==== Контрольная сумма отчёта 2C71D93E790641FB6BA9B568E4393459CF77BFB6FEB737F403248F355F80D99C ====

Лог проверки качества

-----------------------
DON'T MODIFY THIS FILE
-----------------------
PERFORMER: auCDtect Task Manager, ver. 1.6.0 RC1 build 1.6.0.1Copyright (c) 2008-2010 y-soft. All rights reservedhttp://y-soft.org
ANALYZER: auCDtect: CD records authenticity detector, version 0.8.2Copyright (c) 2004 Oleg Berngardt. All rights reserved.Copyright (c) 2004 Alexander Djourik. All rights reserved.
FILE: Sacred Reign - Looking For Love.flac Size: 201898293 Hash: ED4C1668A506044E878949065DC103CB Accuracy: -m0 Conclusion: CDDA 99% Signature: A75D55A9FB756D366389862F5580B5960EC29A77

Скриншот спектра частот

Лог DRM

foobar2000 1.2.9 / Dynamic Range Meter 1.1.1log date: 2019-05-11 18:22:31
--------------------------------------------------------------------------------Analyzed: Sacred Reign / Looking For Love--------------------------------------------------------------------------------
DR Peak RMS Duration Track--------------------------------------------------------------------------------DR14 -0.42 dB -16.59 dB 3:06 01-Strength In YourselfDR12 -0.01 dB -14.09 dB 3:13 02-Arms Open WideDR13 -1.27 dB -17.05 dB 3:22 03-Walking Alone In MoonlightDR13 -0.80 dB -16.56 dB 3:20 04-Looking for LoveDR13 -0.18 dB -14.87 dB 3:22 05-In My MindDR14 0.00 dB -14.66 dB 3:02 06-SomedayDR13 0.00 dB -14.33 dB 3:23 07-Memory LaneDR14 0.00 dB -15.37 dB 3:17 08-Friend of MineDR14 -1.57 dB -20.21 dB 2:35 09-Broken ManDR14 0.00 dB -15.22 dB 2:51 10-Shadow of The Son--------------------------------------------------------------------------------
Number of tracks: 10Official DR value: DR13
Samplerate: 44100 HzChannels: 2Bits per sample: 16Bitrate: 853 kbpsCodec: FLAC================================================================================

Об исполнителе (группе)

Classic Metal fans rejoice! Here is Sacred Reign, the band you have been waiting for. They play a genuin kind of Classic Metal and have a real feel for good rhythmes and catchy hooks. This is good, almost a must-have. The only bad things I can say about this album is that some of the tunes are monotonous and they have too many short ones. But most of the tunes though are good Classic Metal. Their lyrics are very Christ-centered and full of hope. All in all I would say that this is a good debut from a very promising band.
References: Classic Metal with a unique sound. Recommended for fans of Van Halen and other Classic Metal bands.
This listing is for an original 1993 Fraternity Records FACTORY SEALED INDIE Release from Melodic Rock/AOR Artists, "SACRED REIGN," with their RARE release entitled, “LOOKING FOR LOVE.” This group hails out of Ohio and they play incredible Melodic Rock/AOR, compared to SIMON SAYS, OXIDO, and AKA. CD features incredible choruses, anthems and ballads. The ballads, "WALKING IN MOONLIGHT" and "BROKEN MAN" are tear jerker ballads, and "IN MY MIND" and "STRENGTH IN YOURSELF" are tremendous AOR anthems. The whole CD is full of hooks. Still after this many years, this CD is still amazingly FACTORY SEALED! Very rare CD as there were not many of these rare INDIES produced . This CD is so RARE that it is on many collector's want lists - here is your chance to grab it before the holidays! An ABSOLUTE MUST FOR ALL FANS of the genre! Cat #CD-0001-SR
Band: Sacred Reign (Chillicothe, Ohio, USA)
Album: Looking For Love
Label: Fraternity Records
Style: AOR/Hard Rock
Personnel:
Mark Hull - Vocals
Tony Kaltenbach - Guitar, Keyboards
Don Bay - Guitar
Mike Arledge - Bass Guitar
Chad Morris - Drums
Discography:
1) SACRED REIGN - LOOKING FOR LOVE (1993)
2) SACRED REIGN - FOOD FOR THOUGHT (1995)
Tracklist:
1-NO FEAR
2-FOOD FOR THOUGHT
3-HE'S COMING
4-TAKE ME AWAY
5-LOVE FROM ABOVE
6-CONFESSION
7-SACRED REIGN CELEBRATION
8-I'VE MADE THE CHOICE
9-DON'T YOU KNOW
10-I WANNA SEE YOUR FACE
11-NEILED TO THE CROSS
12-REPENT
CREDITS:
Mark Hull - Vocals
Tony Kaltenbach - Guitar, Keyboards
Don Bay - Guitar
Mike Arledge - Bass
Chad Morris - Drums
http://robertigno-christianblogspotcom.blogspot.com/2008/10/sacred-reign-looking-for-love-1993.html

If you like the topic, please click share to help develop our site.

To download the file disable ad blocking, and reload the page.

disable adblock How to disable ad blocking?

Download by magnet link 205 MB Download Torrent

Login using:

Similar topics



   
Current time is: 19-Jul 23:43 :: All times are UTC + 3