Strike Twice / Strike Twice

Жанр: Hard Rock | Hair/Glam Metal
Носитель: CD
Страна-производитель диска (релиза): USA
Год издания: 2009
Издатель (лейбл): Eonian Records
Номер по каталогу: 00008
Страна исполнителя (группы): USA
Аудиокодек: FLAC (*.flac)
Тип рипа: image+.cue
Продолжительность: 00:41:22
Источник: alzal (спасибо !)
Наличие сканов в содержимом раздачи: да
Треклист:
01. Tuff Luck (2:40)
02. Intoxication (4:44)
03. Never Let Go (4:03)
04. Get It (3:04)
05. Dirty Lover (3:50)
06. One Night With You (4:05)
07. Undress Me (3:00)
08. Wake Up Cryin' (3:58)
09. Tango (3:28)
10. D.F.W.M. (3:55)
11. Back Door (4:33)

Лог создания рипа

Exact Audio Copy V1.3 from 2. September 2016
Отчёт EAC об извлечении, выполненном 5. мая 2019, 17:43
Strike Twice / Strike Twice (00008)
Дисковод: PLEXTOR BD-R PX-B950SA Adapter: 1 ID: 0
Режим чтения : ДостоверностьИспользование точного потока : ДаОтключение кэша аудио : ДаИспользование указателей C2 : Нет
Коррекция смещения при чтении : 6Способность читать области Lead-in и Lead-out : НетЗаполнение пропущенных сэмплов тишиной : ДаУдаление блоков с тишиной в начале и конце : НетПри вычислениях CRC использовались нулевые сэмплы : ДаИнтерфейс : Встроенный Win32-интерфейс для Win NT/2000
Выходной формат : Пользовательский кодировщикВыбранный битрейт : 1024 kBit/sКачество : ВысокийДобавление ID3-тега : НетУтилита сжатия : C:\Program Files (x86)\Exact Audio Copy\FLAC\FLAC.EXEДополнительные параметры : -6 -V -T "ARTIST=%artist%" -T "TITLE=%title%" -T "ALBUM=%albumtitle%" -T "DATE=%year%" -T "TRACKNUMBER=%tracknr%" -T "GENRE=%genre%" -T "COMMENT=%comment%" -T "BAND=%albuminterpret%" -T "ALBUMARTIST=%albuminterpret%" -T "COMPOSER=%composer%" %haslyrics%--tag-from-file=LYRICS="%lyricsfile%"%haslyrics% -T "DISCNUMBER=%cdnumber%" -T "TOTALDISCS=%totalcds%" -T "TOTALTRACKS=%numtracks%" %hascover%--picture="%coverfile%"%hascover% %source% -o %dest%
TOC извлечённого CD
Трек | Старт | Длительность | Начальный сектор | Конечный сектор --------------------------------------------------------------------- 1 | 0:00.00 | 2:40.23 | 0 | 12022 2 | 2:40.23 | 4:44.10 | 12023 | 33332 3 | 7:24.33 | 4:02.40 | 33333 | 51522 4 | 11:26.73 | 3:03.65 | 51523 | 65312 5 | 14:30.63 | 3:50.32 | 65313 | 82594 6 | 18:21.20 | 4:05.25 | 82595 | 100994 7 | 22:26.45 | 2:59.73 | 100995 | 114492 8 | 25:26.43 | 3:58.30 | 114493 | 132372 9 | 29:24.73 | 3:28.27 | 132373 | 147999 10 | 32:53.25 | 3:55.04 | 148000 | 165628 11 | 36:48.29 | 4:33.30 | 165629 | 186133
Характеристики диапазона извлечения и сообщения об ошибках
Выбранный диапазон
Имя файла G:\RIP\Strike Twice 2009 FLAC by alzal\Strike Twice - Strike Twice (00008).wav
Пиковый уровень 100.0 % Скорость извлечения 8.0 X Качество диапазона 100.0 % CRC теста DFB24DAA CRC копии DFB24DAA Копирование... OK
Ошибок не произошло
AccurateRip: сводка
Трек 1 : извлечено точно (доверие 1) [BB8C4CCA] (AR v1)Трек 2 : извлечено точно (доверие 1) [96D1ECF4] (AR v1)Трек 3 : извлечено точно (доверие 1) [E162A09D] (AR v1)Трек 4 : извлечено точно (доверие 1) [BF4E3F3D] (AR v1)Трек 5 : извлечено точно (доверие 1) [9E4E28C8] (AR v1)Трек 6 : извлечено точно (доверие 1) [CCF6F726] (AR v1)Трек 7 : извлечено точно (доверие 1) [DC31A3B0] (AR v1)Трек 8 : извлечено точно (доверие 1) [612318F0] (AR v1)Трек 9 : извлечено точно (доверие 1) [B8EE3E28] (AR v1)Трек 10 : извлечено точно (доверие 1) [3CF3DA90] (AR v1)Трек 11 : извлечено точно (доверие 1) [52161D31] (AR v1)
Все треки извлечены точно
Конец отчёта
---- CUETools DB Plugin V2.1.6
[CTDB TOCID: ZtD2gf_kjtDw6lxBwKBfy4mLAAY-] disk not present in databaseSubmit result: ZtD2gf_kjtDw6lxBwKBfy4mLAAY- has been uploaded
==== Контрольная сумма отчёта F1EF6F0403AE8E29872D45AEB58E6CEE51698D244173A3014BA7EDD71D677D38 ====

Лог проверки качества

-----------------------
DON'T MODIFY THIS FILE
-----------------------
PERFORMER: auCDtect Task Manager, ver. 1.6.0 RC1 build 1.6.0.1Copyright (c) 2008-2010 y-soft. All rights reservedhttp://y-soft.org
ANALYZER: auCDtect: CD records authenticity detector, version 0.8.2Copyright (c) 2004 Oleg Berngardt. All rights reserved.Copyright (c) 2004 Alexander Djourik. All rights reserved.
FILE: Strike Twice - Strike Twice (00008).flac Size: 330052726 Hash: 119996F686EF576951B66883933CF72F Accuracy: -m0 Conclusion: CDDA 100% Signature: 98D8719229DAE15766B7EEC77F5738CB0FF9D8F7

Лог DRM

foobar2000 1.2.9 / Dynamic Range Meter 1.1.1log date: 2019-05-11 18:09:58
--------------------------------------------------------------------------------Analyzed: Strike Twice / Strike Twice (00008)--------------------------------------------------------------------------------
DR Peak RMS Duration Track--------------------------------------------------------------------------------DR9 -0.06 dB -9.35 dB 2:40 01-Tuff LuckDR8 0.00 dB -9.21 dB 4:44 02-IntoxicationDR8 0.00 dB -8.53 dB 4:03 03-Never Let GoDR9 0.00 dB -9.24 dB 3:04 04-Get ItDR9 -0.06 dB -9.41 dB 3:50 05-Dirty LoverDR8 -0.06 dB -9.12 dB 4:05 06-One Night With YouDR8 0.00 dB -9.10 dB 3:00 07-Undress MeDR8 0.00 dB -9.87 dB 3:58 08-Wake Up Cryin'DR9 0.00 dB -9.47 dB 3:28 09-TangoDR8 0.00 dB -9.15 dB 3:55 10-D.F.W.M.DR8 0.00 dB -8.86 dB 4:33 11-Back Door--------------------------------------------------------------------------------
Number of tracks: 11Official DR value: DR8
Samplerate: 44100 HzChannels: 2Bits per sample: 16Bitrate: 1064 kbpsCodec: FLAC================================================================================
Доп. информация:

Состав

Michael Hayes - Lead & Backing Vocals
Randi Price - Drums, Percussion & Backing Vocals
Rob Luv - Guitars
Chaz Domino - Bass & Backing Vocals
Trixx - Guitars
Tracks 1,3,4 & 11 Recorded At Media Sound Studios, NY, 1989, Produced by Steve Amend
Tracks 5 - 9 Recorded At Avalon Studios, NY, 1990, Produced by Strike Twice
Tracks 2 & 10 Recorded At Avalon Studios, NY, 1991, Produced by Donny Whaller

If you like the topic, please click share to help develop our site.

To download the file disable ad blocking, and reload the page.

disable adblock How to disable ad blocking?

Download by magnet link 342 MB Download Torrent

Login using:

Similar topics



   
Current time is: 20-Jul 00:14 :: All times are UTC + 3