- Mats Eilertsen Trio - And Then Comes the Night (2019) -[img=right]http://nnmassets.cf/forum/image.php?link=https://fu.../2TR6C.jpg[/img]
Жанр: Contemporary Jazz
Издание: ECM Records - ECM 2619
Продолжительность: 00:47:30
Кодек: FLAC
Битрейт: Lossless
Тип рипа: tracks + .cue
Треклист:
01. 22 (04:58)
02. Perpetum (06:55)
03. Albatross (04:28)
04. After The Rain (02:20)
05. The Void (06:32)
06. Solace (02:46)
07. Sirens (04:37)
08. Then Comes The Night (05:04)
09. Soften (04:52)
10. 22 (Var.) (04:58)

Отчёт XLD:

X Lossless Decoder version 20160920 (149.2)
XLD extraction logfile from 2019-04-11 20:09:52 +0200
Mats Eilertsen / And Then Comes The Night
Used drive : HL-DT-ST DVDRW GX40N (revision RQ00)
Media type : Pressed CD
Ripper mode : XLD Secure Ripper
Disable audio cache : OK for the drive with a cache less than 1375KiB
Make use of C2 pointers : NO
Read offset correction : 6
Max retry count : 20
Gap status : Analyzed, Appended (except HTOA)
TOC of the extracted CD
Track | Start | Length | Start sector | End sector
---------------------------------------------------------
1 | 00:00:00 | 04:58:22 | 0 | 22371
2 | 04:58:22 | 06:55:64 | 22372 | 53560
3 | 11:54:11 | 04:28:09 | 53561 | 73669
4 | 16:22:20 | 02:20:44 | 73670 | 84213
5 | 18:42:64 | 06:32:49 | 84214 | 113662
6 | 25:15:38 | 02:46:54 | 113663 | 126166
7 | 28:02:17 | 04:37:04 | 126167 | 146945
8 | 32:39:21 | 05:04:22 | 146946 | 169767
9 | 37:43:43 | 04:52:30 | 169768 | 191697
10 | 42:35:73 | 04:58:33 | 191698 | 214080
AccurateRip Summary (DiscID: 0012406c-00905fac-840b260a)
Track 01 : OK (v2, confidence 3/3)
Track 02 : OK (v2, confidence 3/3)
Track 03 : OK (v2, confidence 3/3)
Track 04 : OK (v2, confidence 3/3)
Track 05 : OK (v2, confidence 3/3)
Track 06 : OK (v2, confidence 3/3)
Track 07 : OK (v2, confidence 3/3)
Track 08 : OK (v2, confidence 3/3)
Track 09 : OK (v2, confidence 3/3)
Track 10 : OK (v2, confidence 3/3)
->All tracks accurately ripped.
All Tracks
Album gain : 2.57 dB
Peak : 0.966339
Statistics
Read error : 0
Jitter error (maybe fixed) : 0
Retry sector count : 0
Damaged sector count : 0
Track 01
Filename : /rips/Mats Eilertsen - And Then Comes The Night (2019) [FLAC]/01 22.flac
Pre-gap length : 00:02:00
Track gain : 3.93 dB
Peak : 0.743073
CRC32 hash (test run) : D2C15AF3
CRC32 hash : D2C15AF3
CRC32 hash (skip zero) : 8A4B0E97
AccurateRip v1 signature : AD265582
AccurateRip v2 signature : 3D5BCFF4
->Accurately ripped (v2, confidence 3/3)
Statistics
Read error : 0
Jitter error (maybe fixed) : 0
Retry sector count : 0
Damaged sector count : 0
Track 02
Filename : /rips/Mats Eilertsen - And Then Comes The Night (2019) [FLAC]/02 Perpetum.flac
Track gain : 3.95 dB
Peak : 0.776154
CRC32 hash (test run) : E7F45011
CRC32 hash : E7F45011
CRC32 hash (skip zero) : 3D050B77
AccurateRip v1 signature : FD01A6BF
AccurateRip v2 signature : 3EFE5E15
->Accurately ripped (v2, confidence 3/3)
Statistics
Read error : 0
Jitter error (maybe fixed) : 0
Retry sector count : 0
Damaged sector count : 0
Track 03
Filename : /rips/Mats Eilertsen - And Then Comes The Night (2019) [FLAC]/03 Albatross.flac
Track gain : 1.67 dB
Peak : 0.821960
CRC32 hash (test run) : 97824BC0
CRC32 hash : 97824BC0
CRC32 hash (skip zero) : 7DECB5E9
AccurateRip v1 signature : 217D94E1
AccurateRip v2 signature : 860B8292
->Accurately ripped (v2, confidence 3/3)
Statistics
Read error : 0
Jitter error (maybe fixed) : 0
Retry sector count : 0
Damaged sector count : 0
Track 04
Filename : /rips/Mats Eilertsen - And Then Comes The Night (2019) [FLAC]/04 After The Rain.flac
Track gain : 2.37 dB
Peak : 0.730835
CRC32 hash (test run) : 8220380E
CRC32 hash : 8220380E
CRC32 hash (skip zero) : 5F400D55
AccurateRip v1 signature : 8269B7A3
AccurateRip v2 signature : C1AD822C
->Accurately ripped (v2, confidence 3/3)
Statistics
Read error : 0
Jitter error (maybe fixed) : 0
Retry sector count : 0
Damaged sector count : 0
Track 05
Filename : /rips/Mats Eilertsen - And Then Comes The Night (2019) [FLAC]/05 The Void.flac
Track gain : 4.25 dB
Peak : 0.766846
CRC32 hash (test run) : 2C86AC47
CRC32 hash : 2C86AC47
CRC32 hash (skip zero) : D1EEA527
AccurateRip v1 signature : 62434597
AccurateRip v2 signature : B1329704
->Accurately ripped (v2, confidence 3/3)
Statistics
Read error : 0
Jitter error (maybe fixed) : 0
Retry sector count : 0
Damaged sector count : 0
Track 06
Filename : /rips/Mats Eilertsen - And Then Comes The Night (2019) [FLAC]/06 Solace.flac
Track gain : 2.48 dB
Peak : 0.631195
CRC32 hash (test run) : 8A1E7D71
CRC32 hash : 8A1E7D71
CRC32 hash (skip zero) : 0831A670
AccurateRip v1 signature : 0B8D4554
AccurateRip v2 signature : F64F813E
->Accurately ripped (v2, confidence 3/3)
Statistics
Read error : 0
Jitter error (maybe fixed) : 0
Retry sector count : 0
Damaged sector count : 0
Track 07
Filename : /rips/Mats Eilertsen - And Then Comes The Night (2019) [FLAC]/07 Sirens.flac
Track gain : 1.82 dB
Peak : 0.807220
CRC32 hash (test run) : 22FEFAF8
CRC32 hash : 22FEFAF8
CRC32 hash (skip zero) : DB1E5976
AccurateRip v1 signature : A7C7D562
AccurateRip v2 signature : 5EB549C3
->Accurately ripped (v2, confidence 3/3)
Statistics
Read error : 0
Jitter error (maybe fixed) : 0
Retry sector count : 0
Damaged sector count : 0
Track 08
Filename : /rips/Mats Eilertsen - And Then Comes The Night (2019) [FLAC]/08 Then Comes The Night.flac
Track gain : 0.78 dB
Peak : 0.966339
CRC32 hash (test run) : F8695CDB
CRC32 hash : F8695CDB
CRC32 hash (skip zero) : 4C487ACF
AccurateRip v1 signature : E4B66384
AccurateRip v2 signature : C582D210
->Accurately ripped (v2, confidence 3/3)
Statistics
Read error : 0
Jitter error (maybe fixed) : 0
Retry sector count : 0
Damaged sector count : 0
Track 09
Filename : /rips/Mats Eilertsen - And Then Comes The Night (2019) [FLAC]/09 Soften.flac
Track gain : 2.69 dB
Peak : 0.760406
CRC32 hash (test run) : 95D6ECAC
CRC32 hash : 95D6ECAC
CRC32 hash (skip zero) : A9C702EC
AccurateRip v1 signature : E98D120A
AccurateRip v2 signature : 6FDFA9F0
->Accurately ripped (v2, confidence 3/3)
Statistics
Read error : 0
Jitter error (maybe fixed) : 0
Retry sector count : 0
Damaged sector count : 0
Track 10
Filename : /rips/Mats Eilertsen - And Then Comes The Night (2019) [FLAC]/10 22 (Var.).flac
Track gain : 2.97 dB
Peak : 0.848022
CRC32 hash (test run) : 3A54666E
CRC32 hash : 3A54666E
CRC32 hash (skip zero) : 14188D61
AccurateRip v1 signature : 0244A849
AccurateRip v2 signature : 7ED186F2
->Accurately ripped (v2, confidence 3/3)
Statistics
Read error : 0
Jitter error (maybe fixed) : 0
Retry sector count : 0
Damaged sector count : 0
No errors occurred
End of status report
-----BEGIN XLD SIGNATURE-----
8Qaf30s2_IoVo22U811OZ10VG18rRwv1VWtFVHxYhEbkmWJxV3SHX4TB4cIdSgmXHiXzd9oSEIfcIaaMNVNcvjNVZW8xQVmrbQTDpJO
-----END XLD SIGNATURE-----
Время раздачи: 24/7 (до появления первых 3-5 скачавших)-[img=left]http://nnmassets.cf/forum/image.php?link=http://free-download.su/forum/images/medal_audio.png[/img]

Поглощение/вытеснение
Только с согласия релизера

Beijing65

If you like the topic, please click share to help develop our site.

To download the file disable ad blocking, and reload the page.

disable adblock How to disable ad blocking?

Download by magnet link 184 MB Download Torrent

Login using:

Similar topics



   
Current time is: 17-Jul 05:50 :: All times are UTC + 3