Информация о фильме
Название: Счастливого нового дня смерти
Оригинальное название: Happy Death Day 2U
Год выпуска: 2019
Жанр: Ужасы, триллер, детектив
Режиссер: Кристофер Лэндон
В ролях: Джессика Рот, Израэль Бруссар, Фи Ву, Сурадж Шарма, Сара Яркин, Рэйчел Мэттьюз, Руби Модин, Стив Зиссис, Чарльз Эйткин, Лаура Клифтон
О фильме:
На прошлый день рождения судьба преподнесла ей сомнительный подарок — праздник повторялся снова и снова, а в финале её неизменно убивал маньяк в маске. То ли дело в этом году: какое счастье проснуться с утра пораньше и оказаться в той же самой петле времени! Только теперь с тобой умирают все твои друзья… Смертельная тоска? Нет, бесконечное веселье!

Страна: США
Студия: Blumhouse Productions, Digital Riot Media
Продолжительность: 01:39:55
Перевод: Дублированный, авторский (одноголосый, закадровый)
Файл
Формат: MKV
Качество: BDRip 720p
Видео: AVC, 1280x534, 23.976 fps, 4919 kbps
Аудио #1: AC3, 48 kHz, 6 ch, 384 kbps (Russian) - DUB
Аудио #2: AC3, 48 kHz, 6 ch, 448 kbps (Russian) - AVO, М.Яроцкий
Аудио #3: AC3, 48 kHz, 6 ch, 448 kbps (English) - Original
Субтитры: русские, английские
Релиз от: &
Скриншоты:

x264

x264 [info]: frame I:1516 Avg QP:16.80 size:107480 PSNR Mean Y:46.35 U:48.90 V:48.75 Avg:47.02 Global:46.33
x264 [info]: frame P:32296 Avg QP:18.51 size: 44278 PSNR Mean Y:44.89 U:47.88 V:47.58 Avg:45.61 Global:44.57
x264 [info]: frame B:109948 Avg QP:19.36 size: 19011 PSNR Mean Y:44.27 U:47.21 V:46.88 Avg:44.97 Global:43.77

MediaInfo:

Формат : Matroska
Версия формата : Version 2
Размер файла : 4,33 Гбайт
Продолжительность : 1 ч. 39 м.
Общий поток : 6196 Кбит/сек
Дата кодирования : UTC 2019-05-12 06:33:45
Программа кодирования : mkvmerge v5.3.0 ('I could have danced') built on Feb 9 2012 10:38:07
Библиотека кодирования : libebml v1.2.3 + libmatroska v1.3.0
Attachments : poster 1.jpg
Видео
Идентификатор : 1
Формат : AVC
Формат/Информация : Advanced Video Codec
Профиль формата : [email protected]
Настройки формата : CABAC / 12 Ref Frames
Параметр CABAC формата : Да
Параметр RefFrames формата : 12 кадров
Идентификатор кодека : V_MPEG4/ISO/AVC
Продолжительность : 1 ч. 39 м.
Битрейт : 4919 Кбит/сек
Ширина : 1280 пикселей
Высота : 534 пикселя
Соотношение сторон : 2,40:1
Режим частоты кадров : Постоянный
Частота кадров : 23,976 (24000/1001) кадра/сек
Цветовое пространство : YUV
Субдискретизация насыщенности : 4:2:0
Битовая глубина : 8 бит
Тип развёртки : Прогрессивная
Бит/(Пиксели*Кадры) : 0.300
Размер потока : 3,35 Гбайт (77%)
Библиотека кодирования : x264 core 157 r2969 d4099dd
Настройки программы : cabac=1 / ref=12 / deblock=1:-3:-3 / analyse=0x3:0x133 / me=umh / subme=11 / psy=1 / psy_rd=1.00:0.10 / mixed_ref=1 / me_range=32 / chroma_me=1 / trellis=2 / 8x8dct=1 / cqm=0 / deadzone=21,11 / fast_pskip=0 / chroma_qp_offset=-3 / threads=12 / lookahead_threads=2 / sliced_threads=0 / nr=0 / decimate=0 / interlaced=0 / bluray_compat=0 / constrained_intra=0 / bframes=12 / b_pyramid=2 / b_adapt=2 / b_bias=0 / direct=3 / weightb=1 / open_gop=0 / weightp=2 / keyint=240 / keyint_min=23 / scenecut=40 / intra_refresh=0 / rc=2pass / mbtree=0 / bitrate=4919 / ratetol=1.0 / qcomp=0.60 / qpmin=0 / qpmax=69 / qpstep=4 / cplxblur=20.0 / qblur=0.5 / ip_ratio=1.30 / pb_ratio=1.20 / aq=3:0.90
Язык : English
Default : Да
Forced : Нет
Цветовой диапазон : Limited
Основные цвета : BT.709
Характеристики трансфера : BT.709
Коэффициенты матрицы : BT.709
Аудио #1
Идентификатор : 2
Формат : AC-3
Формат/Информация : Audio Coding 3
Коммерческое название : Dolby Digital
Идентификатор кодека : A_AC3
Продолжительность : 1 ч. 39 м.
Вид битрейта : Постоянный
Битрейт : 384 Кбит/сек
Каналы : 6 каналов
ChannelLayout : L R C LFE Ls Rs
Частота : 48,0 КГц
Частота кадров : 31,250 кадров/сек (1536 SPF)
Битовая глубина : 16 бит
Метод сжатия : С потерями
Размер потока : 275 Мбайт (6%)
Заголовок : Дублированный
Язык : Russian
ServiceKind/String : Complete Main
Default : Да
Forced : Нет
Аудио #2
Идентификатор : 3
Формат : AC-3
Формат/Информация : Audio Coding 3
Коммерческое название : Dolby Digital
Идентификатор кодека : A_AC3
Продолжительность : 1 ч. 39 м.
Вид битрейта : Постоянный
Битрейт : 448 Кбит/сек
Каналы : 6 каналов
ChannelLayout : L R C LFE Ls Rs
Частота : 48,0 КГц
Частота кадров : 31,250 кадров/сек (1536 SPF)
Битовая глубина : 16 бит
Метод сжатия : С потерями
Размер потока : 320 Мбайт (7%)
Заголовок : Авторский М.Яроцкий
Язык : Russian
ServiceKind/String : Complete Main
Default : Нет
Forced : Нет
Аудио #3
Идентификатор : 4
Формат : AC-3
Формат/Информация : Audio Coding 3
Коммерческое название : Dolby Digital
Идентификатор кодека : A_AC3
Продолжительность : 1 ч. 39 м.
Вид битрейта : Постоянный
Битрейт : 448 Кбит/сек
Каналы : 6 каналов
ChannelLayout : L R C LFE Ls Rs
Частота : 48,0 КГц
Частота кадров : 31,250 кадров/сек (1536 SPF)
Битовая глубина : 16 бит
Метод сжатия : С потерями
Размер потока : 320 Мбайт (7%)
Заголовок : Оригинал
Язык : English
ServiceKind/String : Complete Main
Default : Нет
Forced : Нет
Текст #1
Идентификатор : 5
Формат : UTF-8
Идентификатор кодека : S_TEXT/UTF8
Идентификатор кодека/Информация : UTF-8 Plain Text
Заголовок : full
Язык : Russian
Default : Нет
Forced : Нет
Текст #2
Идентификатор : 6
Формат : UTF-8
Идентификатор кодека : S_TEXT/UTF8
Идентификатор кодека/Информация : UTF-8 Plain Text
Заголовок : full
Язык : English
Default : Нет
Forced : Нет
Текст #3
Идентификатор : 7
Формат : UTF-8
Идентификатор кодека : S_TEXT/UTF8
Идентификатор кодека/Информация : UTF-8 Plain Text
Заголовок : SDH
Язык : English
Default : Да
Forced : Нет
Меню
00:00:00.000 : en:Chapter 01
00:07:42.253 : en:Chapter 02
00:16:01.085 : en:Chapter 03
00:21:16.066 : en:Chapter 04
00:24:21.460 : en:Chapter 05
00:28:44.890 : en:Chapter 06
00:32:34.661 : en:Chapter 07
00:37:15.817 : en:Chapter 08
00:42:02.812 : en:Chapter 09
00:45:35.107 : en:Chapter 10
00:48:37.665 : en:Chapter 11
00:54:27.347 : en:Chapter 12
01:00:36.341 : en:Chapter 13
01:06:24.314 : en:Chapter 14
01:13:19.520 : en:Chapter 15
01:17:47.079 : en:Chapter 16
01:21:31.762 : en:Chapter 17
01:27:36.084 : en:Chapter 18
01:33:02.994 : en:Chapter 19
01:35:05.700 : en:Chapter 20

If you like the topic, please click share to help develop our site.

To download the file disable ad blocking, and reload the page.

disable adblock How to disable ad blocking?

Download by magnet link 4.33 GB Download Torrent

Login using:

Similar topics



   
Current time is: 20-Jul 00:07 :: All times are UTC + 3