Аквамен / Aquaman
Слоган: «Океан зовёт»
Страна: Австралия, США
Студия: DC Comics, DC Entertainment, Panoramic Pictures, Warner Bros. Pictures
Жанр: фантастика, фэнтези, боевик, приключения
Год выпуска: 2018
Продолжительность: 02:23:21
Перевод: Профессиональный (дублированный)
Оригинальная аудиодорожка: английский
Субтитры: Русские (Форсированные, Полные), Украинские (Форсированные), Английские (Full, SDH, SDH-Colored)
Навигация по главам: есть--Режиссер: Джеймс Ван / James Wan--В ролях: Джейсон Момоа, Эмбер Хёрд, Дольф Лундгрен, Николь Кидман, Джули Эндрюс, Патрик Уилсон, Уиллем Дефо, Грэм МакТавиш, Талия Джейд, Джимон Хонсу...--Описание: Артур Карри был сыном работника маяка по имени Том Карри и женщины по имени Атланна. Артур уже в подростковом возрасте демонстрировал невероятную силу и скорость, а также возможность дышать под водой и разговаривать с рыбами. Будучи при смерти, Атланна раскрыла мальчику правду: она была Королевой Атлантиды, находившейся в изгнании, и пообещала, что однажды Артур станет правителем семи морей. Его отец дал ему образование и научил управлять своими возможностями, что в конечном итоге помогло ему стать героем по имени Аквамен.--Доп. информация: | IMDB | КиноПоиск | Сэмпл | --Качество видео: BDRip 720p
Формат видео: MKV
Видео: AVC, 1280x720 (16:9), 7345 kbps, 23.976 fps, 0.332 bit/pixel
Аудио 1: AC3 Dolby Digital, 3/2 (L,C,R,l,r) + LFE ch, 48.0 KHz, 448 Kbps | Дубляж. Русский |
Аудио 2: AC3 Dolby Digital, 3/2 (L,C,R,l,r) + LFE ch, 48.0 KHz, 640 Kbps | Original. English |
Аудио 3: AC3 Dolby Digital, 2/0 (L,R) ch, 48 kHz, 192 kbps | Дубляж. Украинский |
Формат субтитров: softsub (SRT)

Скриншоты

MediaInfo/x264

x264

raw [info]: 1280x720p 1:1 @ 24000/1001 fps (cfr)
x264 [info]: using SAR=1/1
x264 [info]: using cpu capabilities: MMX2 SSE2Fast SSSE3 SSE4.2 AVX
x264 [info]: profile Progressive High, level 4.1, 4:2:0, 8-bit
x264 [info]: frame I:1770 Avg QP:14.13 size:131280
x264 [info]: frame P:49002 Avg QP:16.12 size: 68882
x264 [info]: frame B:155448 Avg QP:18.72 size: 27592
x264 [info]: consecutive B-frames: 2.5% 3.0% 6.1% 42.3% 14.9% 26.9% 2.6% 1.6% 0.2%
x264 [info]: mb I I16..4: 10.6% 74.4% 15.0%
x264 [info]: mb P I16..4: 0.9% 26.0% 2.7% P16..4: 24.8% 21.5% 14.1% 1.0% 0.3% skip: 8.8%
x264 [info]: mb B I16..4: 0.1% 3.2% 0.6% B16..8: 37.1% 17.6% 6.2% direct: 7.7% skip:27.5% L0:43.0% L1:40.7% BI:16.3%
x264 [info]: 8x8 transform intra:85.6% inter:59.8%
x264 [info]: coded y,uvDC,uvAC intra: 94.7% 87.0% 69.3% inter: 39.3% 30.1% 8.2%
x264 [info]: i16 v,h,dc,p: 31% 22% 8% 40%
x264 [info]: i8 v,h,dc,ddl,ddr,vr,hd,vl,hu: 8% 9% 9% 9% 13% 12% 14% 11% 14%
x264 [info]: i4 v,h,dc,ddl,ddr,vr,hd,vl,hu: 7% 9% 4% 9% 16% 13% 16% 11% 15%
x264 [info]: i8c dc,h,v,p: 46% 22% 15% 17%
x264 [info]: Weighted P-Frames: Y:5.3% UV:3.4%
x264 [info]: ref P L0: 48.8% 13.2% 15.6% 6.2% 5.0% 3.8% 3.3% 2.0% 2.0% 0.2% 0.0%
x264 [info]: ref B L0: 78.4% 9.4% 4.8% 2.5% 1.8% 1.7% 1.0% 0.4%
x264 [info]: ref B L1: 96.1% 3.9%
x264 [info]: kb/s:7344.97
General
Unique ID : 237067350515169978796787466700494163656 (0xB25982CB9CA59FBDB591386B36974EC8)
Complete name : Aquaman (2018).IMAX.mkv
Format : Matroska
Format version : Version 4
File size : 8.64 GiB
Duration : 2 h 23 min
Overall bit rate : 8 628 kb/s
Movie name : Аквамен / Aquaman (2018)
Encoded date : UTC 2019-05-12 04:41:59
Writing application : mkvmerge v8.1.0 ('Psychedelic Postcard') 64bit
Writing library : libebml v1.3.1 + libmatroska v1.4.2
Cover : Yes
Attachments : cover.jpg
Video
ID : 1
Format : AVC
Format/Info : Advanced Video Codec
Format profile : [email protected]
Format settings : CABAC / 9 Ref Frames
Format settings, CABAC : Yes
Format settings, ReFrames : 9 frames
Codec ID : V_MPEG4/ISO/AVC
Duration : 2 h 23 min
Bit rate : 7 345 kb/s
Width : 1 280 pixels
Height : 720 pixels
Display aspect ratio : 16:9
Frame rate mode : Constant
Frame rate : 23.976 (24000/1001) FPS
Color space : YUV
Chroma subsampling : 4:2:0
Bit depth : 8 bits
Scan type : Progressive
Bits/(Pixel*Frame) : 0.332
Stream size : 7.35 GiB (85%)
Title : Aquaman (2018) By optik.1557
Writing library : x264 core 157 r2969 d4099dd
Encoding settings : cabac=1 / ref=9 / deblock=1:-2:-1 / analyse=0x3:0x133 / me=umh / subme=10 / psy=1 / psy_rd=1.05:0.01 / mixed_ref=1 / me_range=32 / chroma_me=1 / trellis=2 / 8x8dct=1 / cqm=0 / deadzone=21,11 / fast_pskip=0 / chroma_qp_offset=-2 / threads=6 / lookahead_threads=1 / sliced_threads=0 / nr=0 / decimate=1 / interlaced=0 / bluray_compat=0 / constrained_intra=0 / bframes=8 / b_pyramid=2 / b_adapt=2 / b_bias=0 / direct=1 / weightb=1 / open_gop=0 / weightp=2 / keyint=250 / keyint_min=23 / scenecut=40 / intra_refresh=0 / rc_lookahead=60 / rc=crf / mbtree=0 / crf=17.3 / qcomp=0.70 / qpmin=0 / qpmax=69 / qpstep=4 / vbv_maxrate=50000 / vbv_bufsize=62500 / crf_max=0.0 / nal_hrd=none / filler=0 / ip_ratio=1.40 / pb_ratio=1.30 / aq=3:0.85
Language : English
Default : Yes
Forced : No
Audio #1
ID : 2
Format : AC-3
Format/Info : Audio Coding 3
Commercial name : Dolby Digital
Codec ID : A_AC3
Duration : 2 h 23 min
Bit rate mode : Constant
Bit rate : 448 kb/s
Channel(s) : 6 channels
Channel layout : L R C LFE Ls Rs
Sampling rate : 48.0 kHz
Frame rate : 31.250 FPS (1536 SPF)
Bit depth : 16 bits
Compression mode : Lossy
Stream size : 459 MiB (5%)
Title : Дубляж (Blu-ray CEE)
Language : Russian
Service kind : Complete Main
Default : Yes
Forced : No
Audio #2
ID : 3
Format : AC-3
Format/Info : Audio Coding 3
Commercial name : Dolby Digital
Codec ID : A_AC3
Duration : 2 h 23 min
Bit rate mode : Constant
Bit rate : 640 kb/s
Channel(s) : 6 channels
Channel layout : L R C LFE Ls Rs
Sampling rate : 48.0 kHz
Frame rate : 31.250 FPS (1536 SPF)
Bit depth : 16 bits
Compression mode : Lossy
Stream size : 656 MiB (7%)
Title : Original (Blu-ray CEE)
Language : English
Service kind : Complete Main
Default : No
Forced : No
Audio #3
ID : 4
Format : AC-3
Format/Info : Audio Coding 3
Commercial name : Dolby Digital
Codec ID : A_AC3
Duration : 2 h 23 min
Bit rate mode : Constant
Bit rate : 192 kb/s
Channel(s) : 2 channels
Channel layout : L R
Sampling rate : 48.0 kHz
Frame rate : 31.250 FPS (1536 SPF)
Bit depth : 16 bits
Compression mode : Lossy
Stream size : 197 MiB (2%)
Title : Дубляж (iTunes)
Language : Ukrainian
Service kind : Complete Main
Default : No
Forced : No
Text #1
ID : 5
Format : UTF-8
Codec ID : S_TEXT/UTF8
Codec ID/Info : UTF-8 Plain Text
Duration : 2 h 22 min
Bit rate : 1 b/s
Count of elements : 28
Stream size : 1.37 KiB (0%)
Title : Форсированные
Language : Russian
Default : Yes
Forced : No
Text #2
ID : 6
Format : UTF-8
Codec ID : S_TEXT/UTF8
Codec ID/Info : UTF-8 Plain Text
Duration : 2 h 22 min
Bit rate : 55 b/s
Count of elements : 1119
Stream size : 58.0 KiB (0%)
Title : Полные (Blu-ray CEE)
Language : Russian
Default : No
Forced : No
Text #3
ID : 7
Format : UTF-8
Codec ID : S_TEXT/UTF8
Codec ID/Info : UTF-8 Plain Text
Duration : 2 h 22 min
Bit rate : 1 b/s
Count of elements : 32
Stream size : 1.59 KiB (0%)
Title : Форсированные
Language : Ukrainian
Default : No
Forced : No
Text #4
ID : 8
Format : UTF-8
Codec ID : S_TEXT/UTF8
Codec ID/Info : UTF-8 Plain Text
Duration : 2 h 14 min
Bit rate : 38 b/s
Count of elements : 1132
Stream size : 37.5 KiB (0%)
Title : Full
Language : English
Default : No
Forced : No
Text #5
ID : 9
Format : UTF-8
Codec ID : S_TEXT/UTF8
Codec ID/Info : UTF-8 Plain Text
Duration : 2 h 22 min
Bit rate : 41 b/s
Count of elements : 1470
Stream size : 43.6 KiB (0%)
Title : SDH
Language : English
Default : No
Forced : No
Text #6
ID : 10
Format : UTF-8
Codec ID : S_TEXT/UTF8
Codec ID/Info : UTF-8 Plain Text
Duration : 2 h 15 min
Bit rate : 58 b/s
Count of elements : 1474
Stream size : 57.5 KiB (0%)
Title : SDH-Colored
Language : English
Default : No
Forced : No
Menu
00:00:00.000 : :1
00:11:09.294 : :2
00:22:11.622 : :3
00:30:11.018 : :4
00:40:28.718 : :5
00:50:24.647 : :6
01:01:15.755 : :7
01:08:57.091 : :8
01:21:41.271 : :9
01:34:50.435 : :10
01:39:37.430 : :11
01:49:32.816 : :12
02:01:36.539 : :13
02:10:19.895 : :14

If you like the topic, please click share to help develop our site.

To download the file disable ad blocking, and reload the page.

disable adblock How to disable ad blocking?

Download by magnet link 8.64 GB Download Torrent

Login using:

Similar topics



   
Current time is: 20-Jul 10:22 :: All times are UTC + 3