Оставайтесь с нами / Stay Tuned
Страна: США
Жанр: приключения, фэнтези, комедия
Год выпуска: 1992
Продолжительность: 01:28:04
Перевод 1: Профессиональный (двухголосый закадровый) Премьер Видео Фильм
Перевод 2: Профессиональный (двухголосый закадровый) НТВ
Перевод 3: Авторский (одноголосый закадровый) Василий Горчаков
Перевод 4: Одноголосый закадровый Вадим Белов
Субтитры: английские
Оригинальная аудиодорожка: английский
Режиссер: Питер Хайамс / Peter Hyams
В ролях: Джон Риттер, Пэм Доубер, Джеффри Джонс, Дэвид Том, Хизер МакКомб, Боб Диши, Джойс Гордон, Юджин Леви, Эрик Кинг, Дон Кэлфа...
Описание: Лежебока Рой Нэйбл попадает в иное измерение и оказывается по ту сторону экрана. Если он сможет выжить, то вернется домой. Если же нет, то его закроют, как и любое шоу с низким рейтингом… причем закроют навсегда!
Недавно установленная спутниковая тарелка затянула нашего героя и его жену в странный и причудливый телемир. Чету Нэйблсов ждёт вынужденное «гостевое участие» в многочисленных кошмарных шоу, среди которых «Переехать мисс Дэйзи», «Вскрытие богатых и знаменитых», «Адское Эм-Ти-Ви», «Колесо пыток», «Северное обнажение до костей», а также встреча с персонажем, по имени «Робо-кот» (созданным гением анимации Чаком Джонсом).
Заправляет всем этим дьявольским телевизионным безобразием продюсер из ада.
Доп. информация: За перевод Премьер спасибо amplified и PUSSEN. Перевод НТВ+ с раздачи JUSTKANT в переводе не хватала 2 минут, восполнен переводом Премьер. Перевод Горчакова с раздачи _int_. Перевод Белова с раздачи mihaildns. Оцифровка перевода ICTV - Gorezcaid. Синхронизация звука - Dreven.
Сэмпл: http://sendfile.su/1493818
Тип релиза: BDRip 720p
Контейнер: MKV
Видео: 1280x544 (2.35:1), 23.976 fps, AVC, ~5595 Kbps, 0.335 bits/pixel
Аудио 1: Russian, 48.0 KHz, AC3, 2 ch, 224 Kbps - Премьер Видео Фильм
Аудио 2: Russian, 48.0 KHz, AC3, 2 ch, 192 Kbps - НТВ+
Аудио 3: Russian, 48.0 KHz, AC3, 2 ch, 192 Kbps - Василий Горчаков
Аудио 4: Russian, 48.0 KHz, AC3, 2 ch, 192 Kbps - Вадим Белов
Аудио 5: Ukrainian, 48.0 KHz, AC3, 1 ch, 192 Kbps - ICTV
Аудио 6: English, 48.0 KHz, DTS, 2 ch, 1510 Kbps

MediaInfo

General
Unique ID : 154400614162344930840553612714648811094 (0x74287A04139C28EEFD92AF1559283656)
Complete name : C:\Stay Tuned. BDRip 720p.mkv
Format : Matroska
Format version : Version 4 / Version 2
File size : 4.98 GiB
Duration : 1 h 28 min
Overall bit rate : 8 099 kb/s
Encoded date : UTC 2019-05-11 09:17:57
Writing application : mkvmerge v33.1.0 ('Primrose') 64-bit
Writing library : libebml v1.3.7 + libmatroska v1.5.0
Video
ID : 1
Format : AVC
Format/Info : Advanced Video Codec
Format profile : [email protected]
Format settings : CABAC / 5 Ref Frames
Format settings, CABAC : Yes
Format settings, ReFrames : 5 frames
Codec ID : V_MPEG4/ISO/AVC
Duration : 1 h 28 min
Bit rate : 5 595 kb/s
Width : 1 280 pixels
Height : 544 pixels
Display aspect ratio : 2.35:1
Frame rate mode : Constant
Frame rate : 23.976 (24000/1001) FPS
Color space : YUV
Chroma subsampling : 4:2:0
Bit depth : 8 bits
Scan type : Progressive
Bits/(Pixel*Frame) : 0.335
Stream size : 3.44 GiB (69%)
Writing library : x264 core 157 r2935 545de2f
Encoding settings : cabac=1 / ref=5 / deblock=1:-3:-3 / analyse=0x3:0x113 / me=umh / subme=8 / psy=1 / psy_rd=1.00:0.00 / mixed_ref=1 / me_range=16 / chroma_me=1 / trellis=1 / 8x8dct=1 / cqm=0 / deadzone=21,11 / fast_pskip=1 / chroma_qp_offset=-2 / threads=17 / lookahead_threads=2 / sliced_threads=0 / nr=0 / decimate=1 / interlaced=0 / bluray_compat=0 / constrained_intra=0 / bframes=3 / b_pyramid=2 / b_adapt=1 / b_bias=0 / direct=3 / weightb=1 / open_gop=0 / weightp=2 / keyint=250 / keyint_min=23 / scenecut=40 / intra_refresh=0 / rc_lookahead=50 / rc=2pass / mbtree=1 / bitrate=5595 / ratetol=1.0 / qcomp=0.60 / qpmin=0 / qpmax=69 / qpstep=4 / cplxblur=20.0 / qblur=0.5 / ip_ratio=1.40 / aq=1:1.00
Language : English
Default : Yes
Forced : No
Audio #1
ID : 2
Format : AC-3
Format/Info : Audio Coding 3
Commercial name : Dolby Digital
Codec ID : A_AC3
Duration : 1 h 28 min
Bit rate mode : Constant
Bit rate : 224 kb/s
Channel(s) : 2 channels
Channel layout : L R
Sampling rate : 48.0 kHz
Frame rate : 31.250 FPS (1536 SPF)
Bit depth : 16 bits
Compression mode : Lossy
Stream size : 141 MiB (3%)
Title : Премьер Видео Фильм
Language : Russian
Service kind : Complete Main
Default : Yes
Forced : No
Audio #2
ID : 3
Format : AC-3
Format/Info : Audio Coding 3
Commercial name : Dolby Digital
Codec ID : A_AC3
Duration : 1 h 28 min
Bit rate mode : Constant
Bit rate : 192 kb/s
Channel(s) : 2 channels
Channel layout : L R
Sampling rate : 48.0 kHz
Frame rate : 31.250 FPS (1536 SPF)
Bit depth : 16 bits
Compression mode : Lossy
Stream size : 121 MiB (2%)
Title : НТВ+
Language : Russian
Service kind : Complete Main
Default : No
Forced : No
Audio #3
ID : 4
Format : AC-3
Format/Info : Audio Coding 3
Commercial name : Dolby Digital
Codec ID : A_AC3
Duration : 1 h 28 min
Bit rate mode : Constant
Bit rate : 192 kb/s
Channel(s) : 2 channels
Channel layout : L R
Sampling rate : 48.0 kHz
Frame rate : 31.250 FPS (1536 SPF)
Bit depth : 16 bits
Compression mode : Lossy
Stream size : 121 MiB (2%)
Title : Василий Горчаков
Language : Russian
Service kind : Complete Main
Default : No
Forced : No
Audio #4
ID : 5
Format : AC-3
Format/Info : Audio Coding 3
Commercial name : Dolby Digital
Codec ID : A_AC3
Duration : 1 h 28 min
Bit rate mode : Constant
Bit rate : 192 kb/s
Channel(s) : 2 channels
Channel layout : L R
Sampling rate : 48.0 kHz
Frame rate : 31.250 FPS (1536 SPF)
Bit depth : 16 bits
Compression mode : Lossy
Stream size : 121 MiB (2%)
Title : Вадим Белов
Language : Russian
Service kind : Complete Main
Default : No
Forced : No
Audio #5
ID : 6
Format : AC-3
Format/Info : Audio Coding 3
Commercial name : Dolby Digital
Codec ID : A_AC3
Duration : 1 h 28 min
Bit rate mode : Constant
Bit rate : 192 kb/s
Channel(s) : 1 channel
Channel layout : C
Sampling rate : 48.0 kHz
Frame rate : 31.250 FPS (1536 SPF)
Bit depth : 16 bits
Compression mode : Lossy
Stream size : 121 MiB (2%)
Title : ICTV
Language : Ukrainian
Service kind : Complete Main
Default : No
Forced : No
Audio #6
ID : 7
Format : DTS
Format/Info : Digital Theater Systems
Codec ID : A_DTS
Duration : 1 h 28 min
Bit rate mode : Constant
Bit rate : 1 509 kb/s
Channel(s) : 2 channels
Channel layout : L R
Sampling rate : 48.0 kHz
Frame rate : 93.750 FPS (512 SPF)
Bit depth : 24 bits
Compression mode : Lossy
Stream size : 951 MiB (19%)
Language : English
Default : No
Forced : No
Text
ID : 8
Format : UTF-8
Codec ID : S_TEXT/UTF8
Codec ID/Info : UTF-8 Plain Text
Duration : 1 h 27 min
Bit rate : 63 b/s
Count of elements : 1553
Stream size : 40.6 KiB (0%)
Language : English
Default : No
Forced : No

Скриншоты


If you like the topic, please click share to help develop our site.

To download the file disable ad blocking, and reload the page.

disable adblock How to disable ad blocking?

Download by magnet link 4.98 GB Download Torrent

Login using:

Similar topics



   
Current time is: 17-Jul 05:55 :: All times are UTC + 3