Space Tribe - Continuum Vol. 1
Жанр: Goa Trance
Носитель: CD
Страна-производитель диска (релиза): Australia
Год издания: 2011
Издатель (лейбл): Space Tribe Music
Номер по каталогу: STM-010
Страна исполнителя (группы): Australia
Аудиокодек: FLAC (*.flac)
Тип рипа: tracks+.cue
Продолжительность: 02:26:08
Источник: собственный рип
Наличие сканов в содержимом раздачи: да
Треклист:
CD1
01. Space Tribe + Simon Posford - In the Hands of the Shaman [08:57]
02. Space Tribe + Simon Posford - Machine Elf [06:49]
03. Space Tribe - The Future's Right Now [08:40]
04. Space Tribe - Live & Let Live [07:44]
05. Space Tribe - Who's Nutty [08:10]
06. Space Tribe + Simon Posford - Geomatrix [07:55]
07. Space Tribe - Telepathic Contact [07:18]
08. Space Tribe - All You Need Is Spirit and Nothing [08:50]
09. Space Tribe - You Can Be Shiva [09:57]
CD2
01. ESP - The Acid Test [07:38]
02. Space Tribe - All Senses Vibrating [07:22]
03. Space Tribe - Loopy Loo [08:07]
04. Space Tribe - Dance Like Nobody's Watching [09:03]
05. Space Tribe + Psywalker - Twitch [07:13]
06. Space Tribe - 2000 O.D. [08:03]
07. Space Tribe - Live What U Love [07:59]
08. Space Tribe - You Create Your Own Reality [08:50]
09. Space Tribe - What Is Conciousness [07:41]

Лог создания рипа

CD1

Exact Audio Copy V1.3 from 2. September 2016
EAC extraction logfile from 11. May 2019, 4:20
Space Tribe / Continuum Volume 1 CD1
Used drive : ASUS BW-16D1HT Adapter: 1 ID: 0
Read mode : SecureUtilize accurate stream : YesDefeat audio cache : YesMake use of C2 pointers : No
Read offset correction : 6Overread into Lead-In and Lead-Out : NoFill up missing offset samples with silence : YesDelete leading and trailing silent blocks : NoNull samples used in CRC calculations : YesUsed interface : Native Win32 interface for Win NT & 2000Gap handling : Appended to previous track
Used output format : User Defined EncoderSelected bitrate : 1024 kBit/sQuality : HighAdd ID3 tag : NoCommand line compressor : C:\Program Files (x86)\Exact Audio Copy\Flac\x64\flac.exeAdditional command line options : -8 -V -T "ARTIST=%artist%" -T "TITLE=%title%" -T "ALBUM=%albumtitle%" -T "DATE=%year%" -T "TRACKNUMBER=%tracknr%" -T "GENRE=%genre%" -T "COMMENT=%comment%" -T "BAND=%albuminterpret%" -T "ALBUMARTIST=%albuminterpret%" -T "COMPOSER=%composer%" %haslyrics%--tag-from-file=LYRICS="%lyricsfile%"%haslyrics% -T "DISCNUMBER=%cdnumber%" -T "TOTALDISCS=%totalcds%" -T "TOTALTRACKS=%numtracks%" %hascover%--picture="%coverfile%"%hascover% %source% -o %dest%
TOC of the extracted CD
Track | Start | Length | Start sector | End sector --------------------------------------------------------- 1 | 0:00.00 | 8:57.12 | 0 | 40286 2 | 8:57.12 | 6:49.03 | 40287 | 70964 3 | 15:46.15 | 8:40.23 | 70965 | 109987 4 | 24:26.38 | 7:43.39 | 109988 | 144751 5 | 32:10.02 | 8:10.32 | 144752 | 181533 6 | 40:20.34 | 7:54.65 | 181534 | 217148 7 | 48:15.24 | 7:17.71 | 217149 | 249994 8 | 55:33.20 | 8:49.55 | 249995 | 289724 9 | 64:23.00 | 9:56.73 | 289725 | 334497
Track 1
Filename D:\Music\VA - Space Tribe - Continuum vol. 1\CD1\01. Space Tribe + Simon Posford - In the Hands of the Shaman.wav
Pre-gap length 0:00:02.00
Peak level 98.9 % Extraction speed 5.1 X Track quality 99.9 % Test CRC 46536BAC Copy CRC 46536BAC Accurately ripped (confidence 2) [7C85945F] (AR v2) Copy OK
Track 2
Filename D:\Music\VA - Space Tribe - Continuum vol. 1\CD1\02. Space Tribe + Simon Posford - Machine Elf.wav
Peak level 98.9 % Extraction speed 5.7 X Track quality 99.9 % Test CRC 381A9484 Copy CRC 381A9484 Accurately ripped (confidence 2) [68A88E87] (AR v2) Copy OK
Track 3
Filename D:\Music\VA - Space Tribe - Continuum vol. 1\CD1\03. Space Tribe - The Future's Right Now.wav
Peak level 98.9 % Extraction speed 7.2 X Track quality 100.0 % Test CRC FB27E9B3 Copy CRC FB27E9B3 Accurately ripped (confidence 2) [A6FD2FFE] (AR v2) Copy OK
Track 4
Filename D:\Music\VA - Space Tribe - Continuum vol. 1\CD1\04. Space Tribe - Live & Let Live.wav
Peak level 98.9 % Extraction speed 7.8 X Track quality 100.0 % Test CRC 389C849B Copy CRC 389C849B Accurately ripped (confidence 2) [1AEA3B32] (AR v2) Copy OK
Track 5
Filename D:\Music\VA - Space Tribe - Continuum vol. 1\CD1\05. Space Tribe - Who's Nutty.wav
Peak level 98.9 % Extraction speed 8.4 X Track quality 100.0 % Test CRC F0562490 Copy CRC F0562490 Accurately ripped (confidence 2) [4ED8D0C9] (AR v2) Copy OK
Track 6
Filename D:\Music\VA - Space Tribe - Continuum vol. 1\CD1\06. Space Tribe + Simon Posford - Geomatrix.wav
Peak level 96.6 % Extraction speed 8.9 X Track quality 100.0 % Test CRC 0A84BB66 Copy CRC 0A84BB66 Accurately ripped (confidence 2) [5BDFD043] (AR v2) Copy OK
Track 7
Filename D:\Music\VA - Space Tribe - Continuum vol. 1\CD1\07. Space Tribe - Telepathic Contact.wav
Peak level 98.9 % Extraction speed 9.4 X Track quality 100.0 % Test CRC E81FAD14 Copy CRC E81FAD14 Accurately ripped (confidence 2) [659723B5] (AR v2) Copy OK
Track 8
Filename D:\Music\VA - Space Tribe - Continuum vol. 1\CD1\08. Space Tribe - All You Need Is Spirit and Nothing.wav
Peak level 98.9 % Extraction speed 10.0 X Track quality 100.0 % Test CRC AF3FAC79 Copy CRC AF3FAC79 Accurately ripped (confidence 2) [DFCAE068] (AR v2) Copy OK
Track 9
Filename D:\Music\VA - Space Tribe - Continuum vol. 1\CD1\09. Space Tribe - You Can Be Shiva.wav
Peak level 98.9 % Extraction speed 9.5 X Track quality 99.9 % Test CRC BBD436CD Copy CRC BBD436CD Accurately ripped (confidence 2) [563E9961] (AR v2) Copy OK
All tracks accurately ripped
No errors occurred
End of status report
---- CUETools DB Plugin V2.1.6
[CTDB TOCID: n6evlgjrYvTnnO8IYhUqimIlxCg-] foundSubmit result: n6evlgjrYvTnnO8IYhUqimIlxCg- has been confirmedTrack | CTDB Status 1 | (5/5) Accurately ripped 2 | (5/5) Accurately ripped 3 | (5/5) Accurately ripped 4 | (5/5) Accurately ripped 5 | (5/5) Accurately ripped 6 | (5/5) Accurately ripped 7 | (5/5) Accurately ripped 8 | (5/5) Accurately ripped 9 | (5/5) Accurately ripped
==== Log checksum 78E8AECF0800E87017B05A40B2331C1DEF3C2918968A4C56DE6330D0C2ECCF02 ====

CD2

Exact Audio Copy V1.3 from 2. September 2016
EAC extraction logfile from 11. May 2019, 5:03
Space Tribe / Continuum, Volume 1 CD2
Used drive : ASUS BW-16D1HT Adapter: 1 ID: 0
Read mode : SecureUtilize accurate stream : YesDefeat audio cache : YesMake use of C2 pointers : No
Read offset correction : 6Overread into Lead-In and Lead-Out : NoFill up missing offset samples with silence : YesDelete leading and trailing silent blocks : NoNull samples used in CRC calculations : YesUsed interface : Native Win32 interface for Win NT & 2000Gap handling : Appended to previous track
Used output format : User Defined EncoderSelected bitrate : 1024 kBit/sQuality : HighAdd ID3 tag : NoCommand line compressor : C:\Program Files (x86)\Exact Audio Copy\Flac\x64\flac.exeAdditional command line options : -8 -V -T "ARTIST=%artist%" -T "TITLE=%title%" -T "ALBUM=%albumtitle%" -T "DATE=%year%" -T "TRACKNUMBER=%tracknr%" -T "GENRE=%genre%" -T "COMMENT=%comment%" -T "BAND=%albuminterpret%" -T "ALBUMARTIST=%albuminterpret%" -T "COMPOSER=%composer%" %haslyrics%--tag-from-file=LYRICS="%lyricsfile%"%haslyrics% -T "DISCNUMBER=%cdnumber%" -T "TOTALDISCS=%totalcds%" -T "TOTALTRACKS=%numtracks%" %hascover%--picture="%coverfile%"%hascover% %source% -o %dest%
TOC of the extracted CD
Track | Start | Length | Start sector | End sector --------------------------------------------------------- 1 | 0:00.00 | 7:38.04 | 0 | 34353 2 | 7:38.04 | 7:22.10 | 34354 | 67513 3 | 15:00.14 | 8:07.33 | 67514 | 104071 4 | 23:07.47 | 9:02.50 | 104072 | 144771 5 | 32:10.22 | 7:12.74 | 144772 | 177245 6 | 39:23.21 | 8:03.29 | 177246 | 213499 7 | 47:26.50 | 7:59.08 | 213500 | 249432 8 | 55:25.58 | 8:49.44 | 249433 | 289151 9 | 64:15.27 | 7:41.34 | 289152 | 323760
Track 1
Filename D:\Music\VA - Space Tribe - Continuum vol. 1\CD2\01. ESP - The Acid Test.wav
Pre-gap length 0:00:02.00
Peak level 98.9 % Extraction speed 2.5 X Track quality 100.0 % Test CRC 35CD11A3 Copy CRC 35CD11A3 Accurately ripped (confidence 2) [469721B2] (AR v2) Copy OK
Track 2
Filename D:\Music\VA - Space Tribe - Continuum vol. 1\CD2\02. Space Tribe - All Senses Vibrating.wav
Peak level 98.9 % Extraction speed 2.9 X Track quality 100.0 % Test CRC 9EA4B9F9 Copy CRC 9EA4B9F9 Accurately ripped (confidence 2) [C0779926] (AR v2) Copy OK
Track 3
Filename D:\Music\VA - Space Tribe - Continuum vol. 1\CD2\03. Space Tribe - Loopy Loo.wav
Peak level 98.9 % Extraction speed 3.2 X Track quality 100.0 % Test CRC 282F3CE6 Copy CRC 282F3CE6 Accurately ripped (confidence 2) [A4D67F6D] (AR v2) Copy OK
Track 4
Filename D:\Music\VA - Space Tribe - Continuum vol. 1\CD2\04. Space Tribe - Dance Like Nobody's Watching.wav
Peak level 98.9 % Extraction speed 3.6 X Track quality 100.0 % Test CRC BF0A0B37 Copy CRC BF0A0B37 Accurately ripped (confidence 2) [9C20DEEC] (AR v2) Copy OK
Track 5
Filename D:\Music\VA - Space Tribe - Continuum vol. 1\CD2\05. Space Tribe + Psywalker - Twitch.wav
Peak level 98.9 % Extraction speed 3.9 X Track quality 100.0 % Test CRC 32E8C4D2 Copy CRC 32E8C4D2 Accurately ripped (confidence 2) [EA0252B9] (AR v2) Copy OK
Track 6
Filename D:\Music\VA - Space Tribe - Continuum vol. 1\CD2\06. Space Tribe - 2000 O.D..wav
Peak level 98.9 % Extraction speed 3.5 X Track quality 99.9 % Test CRC F9856F01 Copy CRC F9856F01 Accurately ripped (confidence 2) [CCBBCBEA] (AR v2) Copy OK
Track 7
Filename D:\Music\VA - Space Tribe - Continuum vol. 1\CD2\07. Space Tribe - Live What U Love.wav
Peak level 98.9 % Extraction speed 4.3 X Track quality 100.0 % Test CRC 97D21F24 Copy CRC 97D21F24 Accurately ripped (confidence 2) [12A9E755] (AR v2) Copy OK
Track 8
Filename D:\Music\VA - Space Tribe - Continuum vol. 1\CD2\08. Space Tribe - You Create Your Own Reality.wav
Peak level 98.9 % Extraction speed 4.4 X Track quality 100.0 % Test CRC 4EF55DF1 Copy CRC 4EF55DF1 Accurately ripped (confidence 2) [BD353F0F] (AR v2) Copy OK
Track 9
Filename D:\Music\VA - Space Tribe - Continuum vol. 1\CD2\09. Space Tribe - What Is Conciousness.wav
Peak level 98.9 % Extraction speed 4.0 X Track quality 99.9 % Test CRC 6F2DAF6A Copy CRC 6F2DAF6A Accurately ripped (confidence 2) [734F8B5B] (AR v2) Copy OK
All tracks accurately ripped
No errors occurred
End of status report
---- CUETools DB Plugin V2.1.6
[CTDB TOCID: DZAtDqngv5O6hm6M9VLLdB2Pny8-] foundSubmit result: DZAtDqngv5O6hm6M9VLLdB2Pny8- has been confirmedTrack | CTDB Status 1 | (5/5) Accurately ripped 2 | (5/5) Accurately ripped 3 | (5/5) Accurately ripped 4 | (5/5) Accurately ripped 5 | (5/5) Accurately ripped 6 | (5/5) Accurately ripped 7 | (5/5) Accurately ripped 8 | (5/5) Accurately ripped 9 | (5/5) Accurately ripped
==== Log checksum DB3219A926FC3989A7DCF15DE820B7BA8383C80DEB1E40F9FAC1F7D9E09E5500 ====

Содержание индексной карты (.CUE)

CD1

REM DATE 2011REM DISCID 92116B09REM COMMENT "ExactAudioCopy v1.3"PERFORMER "Space Tribe"TITLE "Continuum Volume 1 CD1"REM COMPOSER ""FILE "01. Space Tribe + Simon Posford - In the Hands of the Shaman.wav" WAVE  TRACK 01 AUDIO    TITLE "In the Hands of the Shaman"    PERFORMER "Space Tribe + Simon Posford"    REM COMPOSER ""    INDEX 01 00:00:00FILE "02. Space Tribe + Simon Posford - Machine Elf.wav" WAVE  TRACK 02 AUDIO    TITLE "Machine Elf"    PERFORMER "Space Tribe + Simon Posford"    REM COMPOSER ""    INDEX 01 00:00:00FILE "03. Space Tribe - The Future's Right Now.wav" WAVE  TRACK 03 AUDIO    TITLE "The Future's Right Now"    PERFORMER "Space Tribe"    REM COMPOSER ""    INDEX 01 00:00:00FILE "04. Space Tribe - Live & Let Live.wav" WAVE  TRACK 04 AUDIO    TITLE "Live & Let Live"    PERFORMER "Space Tribe"    REM COMPOSER ""    INDEX 01 00:00:00FILE "05. Space Tribe - Who's Nutty.wav" WAVE  TRACK 05 AUDIO    TITLE "Who's Nutty"    PERFORMER "Space Tribe"    REM COMPOSER ""    INDEX 01 00:00:00FILE "06. Space Tribe + Simon Posford - Geomatrix.wav" WAVE  TRACK 06 AUDIO    TITLE "Geomatrix"    PERFORMER "Space Tribe + Simon Posford"    REM COMPOSER ""    INDEX 01 00:00:00FILE "07. Space Tribe - Telepathic Contact.wav" WAVE  TRACK 07 AUDIO    TITLE "Telepathic Contact"    PERFORMER "Space Tribe"    REM COMPOSER ""    INDEX 01 00:00:00FILE "08. Space Tribe - All You Need Is Spirit and Nothing.wav" WAVE  TRACK 08 AUDIO    TITLE "All You Need Is Spirit and Nothing"    PERFORMER "Space Tribe"    REM COMPOSER ""    INDEX 01 00:00:00FILE "09. Space Tribe - You Can Be Shiva.wav" WAVE  TRACK 09 AUDIO    TITLE "You Can Be Shiva"    PERFORMER "Space Tribe"    REM COMPOSER ""    INDEX 01 00:00:00

CD1

REM DATE 2011REM DISCID 8710DC09REM COMMENT "ExactAudioCopy v1.3"PERFORMER "Space Tribe"TITLE "Continuum, Volume 1 CD2"REM COMPOSER ""FILE "01. ESP - The Acid Test.wav" WAVE  TRACK 01 AUDIO    TITLE "The Acid Test"    PERFORMER "ESP"    REM COMPOSER ""    INDEX 01 00:00:00FILE "02. Space Tribe - All Senses Vibrating.wav" WAVE  TRACK 02 AUDIO    TITLE "All Senses Vibrating"    PERFORMER "Space Tribe"    REM COMPOSER ""    INDEX 01 00:00:00FILE "03. Space Tribe - Loopy Loo.wav" WAVE  TRACK 03 AUDIO    TITLE "Loopy Loo"    PERFORMER "Space Tribe"    REM COMPOSER ""    INDEX 01 00:00:00FILE "04. Space Tribe - Dance Like Nobody's Watching.wav" WAVE  TRACK 04 AUDIO    TITLE "Dance Like Nobody's Watching"    PERFORMER "Space Tribe"    REM COMPOSER ""    INDEX 01 00:00:00FILE "05. Space Tribe + Psywalker - Twitch.wav" WAVE  TRACK 05 AUDIO    TITLE "Twitch"    PERFORMER "Space Tribe + Psywalker"    REM COMPOSER ""    INDEX 01 00:00:00FILE "06. Space Tribe - 2000 O.D..wav" WAVE  TRACK 06 AUDIO    TITLE "2000 O.D."    PERFORMER "Space Tribe"    REM COMPOSER ""    INDEX 01 00:00:00FILE "07. Space Tribe - Live What U Love.wav" WAVE  TRACK 07 AUDIO    TITLE "Live What U Love"    PERFORMER "Space Tribe"    REM COMPOSER ""    INDEX 01 00:00:00FILE "08. Space Tribe - You Create Your Own Reality.wav" WAVE  TRACK 08 AUDIO    TITLE "You Create Your Own Reality"    PERFORMER "Space Tribe"    REM COMPOSER ""    INDEX 01 00:00:00FILE "09. Space Tribe - What Is Conciousness.wav" WAVE  TRACK 09 AUDIO    TITLE "What Is Conciousness"    PERFORMER "Space Tribe"    REM COMPOSER ""    INDEX 01 00:00:00

Лог проверки качества

CD1

-----------------------
DON'T MODIFY THIS FILE
-----------------------
PERFORMER: auCDtect Task Manager, ver. 1.6.0 RC1 build 1.6.0.1Copyright (c) 2008-2010 y-soft. All rights reservedhttp://y-soft.org
ANALYZER: auCDtect: CD records authenticity detector, version 0.8.2Copyright (c) 2004 Oleg Berngardt. All rights reserved.Copyright (c) 2004 Alexander Djourik. All rights reserved.
FILE: 06. Space Tribe + Simon Posford - Geomatrix.flac Size: 54192269 Hash: FC03B5E19AC82D9226EED560E7E02523 Accuracy: -m0 Conclusion: CDDA 100% Signature: 53BA8FC2822BACE044B7843B66FEEE73FA89B64FFILE: 09. Space Tribe - You Can Be Shiva.flac Size: 72417575 Hash: B9A856E6C7F65DE93AC1183ECAA96724 Accuracy: -m0 Conclusion: CDDA 100% Signature: 8100A03B79E30B01331A27029001D7FA050193F6FILE: 01. Space Tribe + Simon Posford - In the Hands of the Shaman.flac Size: 65050388 Hash: E0322B5B2CE34D61AB71FABB485FDDCE Accuracy: -m0 Conclusion: CDDA 99% Signature: 814D38A137B6F905C5DCDAD30BFDDCA5CE5391AEFILE: 08. Space Tribe - All You Need Is Spirit and Nothing.flac Size: 70942003 Hash: 143279053357E6AFE1214E14087E1338 Accuracy: -m0 Conclusion: CDDA 100% Signature: 441AEC1428FCCA99DCB33DD32BC2A426A8D09FDAFILE: 07. Space Tribe - Telepathic Contact.flac Size: 58227991 Hash: 567806C0BD454D5E5125FAC4A7ABBE21 Accuracy: -m0 Conclusion: CDDA 100% Signature: CE676CE69D3A9D4F2F69BA661B1A6781E70A3A87FILE: 04. Space Tribe - Live & Let Live.flac Size: 64695370 Hash: 65750EC6544ED8109E566C4710AD328A Accuracy: -m0 Conclusion: CDDA 100% Signature: EE083EAB99C902B2C0FDAAA4F19705BEFE8BB1DCFILE: 03. Space Tribe - The Future's Right Now.flac Size: 64683582 Hash: 996A1C679A0A4EBDBDF1D9D6B1FEA1D4 Accuracy: -m0 Conclusion: CDDA 100% Signature: 60ADE45009D91BE71CCDB32A0AD5B2DA02AEE670FILE: 02. Space Tribe + Simon Posford - Machine Elf.flac Size: 52628280 Hash: 2CEE40B00399BD74031808E5978AA25B Accuracy: -m0 Conclusion: CDDA 99% Signature: B2C45C34C0BA13727CBB7B8162E243D349053D84FILE: 05. Space Tribe - Who's Nutty.flac Size: 62361702 Hash: 7F91D58B61F6B8CA9C506265D6AA0C4D Accuracy: -m0 Conclusion: CDDA 100% Signature: 20C5B02DD85A4EC9D66AEC0F291416A29A045E72

CD2

-----------------------
DON'T MODIFY THIS FILE
-----------------------
PERFORMER: auCDtect Task Manager, ver. 1.6.0 RC1 build 1.6.0.1Copyright (c) 2008-2010 y-soft. All rights reservedhttp://y-soft.org
ANALYZER: auCDtect: CD records authenticity detector, version 0.8.2Copyright (c) 2004 Oleg Berngardt. All rights reserved.Copyright (c) 2004 Alexander Djourik. All rights reserved.
FILE: 01. ESP - The Acid Test.flac Size: 63549876 Hash: 2F8CF18FC30C48A742DAF796A9E63978 Accuracy: -m0 Conclusion: CDDA 100% Signature: 3FB34536602FA0F9E36B083D30BF5806A48A06CCFILE: 05. Space Tribe + Psywalker - Twitch.flac Size: 54806596 Hash: B7D905165D8A431A344F30A58FCB6101 Accuracy: -m0 Conclusion: CDDA 100% Signature: 664F1C86E6BA9EE9AA7778389777C38A4AD6527BFILE: 08. Space Tribe - You Create Your Own Reality.flac Size: 69369868 Hash: C4A95B292FCD9AF06A25D1B4EFAE41B9 Accuracy: -m0 Conclusion: CDDA 100% Signature: B5824B2FDE7FF9C172E466EB03BA66D539B60D3DFILE: 06. Space Tribe - 2000 O.D..flac Size: 61663637 Hash: 916358564267D9B25C2325B8CBA6FFBE Accuracy: -m0 Conclusion: CDDA 100% Signature: 40638713FFE3C0EDE42BAABE885E6451553F6C90FILE: 04. Space Tribe - Dance Like Nobody's Watching.flac Size: 69677649 Hash: 5CBBB4FE31E6A26DF795C5A734134E0B Accuracy: -m0 Conclusion: CDDA 100% Signature: DF80D459EF5F090DD0D3E97AD6F1C22FF21BEB2BFILE: 09. Space Tribe - What Is Conciousness.flac Size: 57070186 Hash: 65B0DD5D6CC8F14A62BA5D6FA0BF9721 Accuracy: -m0 Conclusion: CDDA 100% Signature: 2665E9ED77981CD710017839D9AD749EF0035C64FILE: 07. Space Tribe - Live What U Love.flac Size: 64167468 Hash: B19FB50B84367BF1AC55974EA77A5CA8 Accuracy: -m0 Conclusion: CDDA 100% Signature: 9D5992995C322AD1547E96913B32B71B750B8B32FILE: 03. Space Tribe - Loopy Loo.flac Size: 64952403 Hash: 9566FDF5F015F9BB85A6474DD0668150 Accuracy: -m0 Conclusion: CDDA 100% Signature: 59E536EAEA0BD59D466273E24819E783AA345272FILE: 02. Space Tribe - All Senses Vibrating.flac Size: 56513435 Hash: 157DC71EFC4E5B0AE026BFBEB77C3657 Accuracy: -m0 Conclusion: CDDA 100% Signature: 9482737561C55235261D06274D2B20222AB102C0
Доп. информация: https://www.discogs.com/release/3358096

If you like the topic, please click share to help develop our site.

To download the file disable ad blocking, and reload the page.

disable adblock How to disable ad blocking?

Download by magnet link 1.21 GB Download Torrent

Login using:

Similar topics



   
Current time is: 17-Jul 06:01 :: All times are UTC + 3