Goa Sound System vol.2
Жанр: progressive psy-trance
Носитель: CD
Год издания: 2003
Издатель (лейбл): Yellow Sunshine Explosion
Номер по каталогу: YSE 032-DCD
Аудиокодек: FLAC (*.flac)
Тип рипа: image+.cue
Продолжительность: 2:07:14
Источник: собственный рип
Наличие сканов в содержимом раздачи: да
Треклист:

CD1

01. AKD - AKD (8:03)
02. Native Radio - Flatline (10:10)
03. Vibrasphere - Purple Floating (Cosma Remix) (8:02)
04. Star X - Ocean View (7:45)
05. Astrix - Disco Valley (8:07)
06. Psy Craft - Top Gun (7:38)
07. Herbal Essence - Flying Pegasus (9:11)
08. Transporter - Voices (6:49)

Log CD 1

Exact Audio Copy V1.3 from 2. September 2016
EAC extraction logfile from 26. March 2019, 23:11
Various / Goa Sound System Vol2 CD1
Used drive : TEAC CD-W524E Adapter: 1 ID: 1
Read mode : SecureUtilize accurate stream : YesDefeat audio cache : YesMake use of C2 pointers : No
Read offset correction : 686Overread into Lead-In and Lead-Out : NoFill up missing offset samples with silence : YesDelete leading and trailing silent blocks : NoNull samples used in CRC calculations : YesUsed interface : Native Win32 interface for Win NT & 2000
Used output format : User Defined EncoderSelected bitrate : 896 kBit/sQuality : HighAdd ID3 tag : NoCommand line compressor : C:\Program Files\Exact Audio Copy\FLAC\FLAC.EXEAdditional command line options : -8 -V -T "ARTIST=%artist%" -T "TITLE=%title%" -T "ALBUM=%albumtitle%" -T "DATE=%year%" -T "TRACKNUMBER=%tracknr%" -T "GENRE=%genre%" -T "COMMENT=%comment%" %hascover%--picture="%coverfile%"%hascover% %source% -o %dest%
TOC of the extracted CD
Track | Start | Length | Start sector | End sector --------------------------------------------------------- 1 | 0:00.00 | 8:03.32 | 0 | 36256 2 | 8:03.32 | 10:09.61 | 36257 | 81992 3 | 18:13.18 | 8:01.55 | 81993 | 118122 4 | 26:14.73 | 7:45.30 | 118123 | 153027 5 | 34:00.28 | 8:07.23 | 153028 | 189575 6 | 42:07.51 | 7:38.00 | 189576 | 223925 7 | 49:45.51 | 9:11.16 | 223926 | 265266 8 | 58:56.67 | 6:49.35 | 265267 | 295976
Range status and errors
Selected range
Filename I:\CD_lossless_my\VA - Goa Sound System Vol.2\CD1\Various - Goa Sound System Vol2 CD1.wav
Peak level 98.8 % Extraction speed 3.9 X Range quality 100.0 % Test CRC 91DFA1F7 Copy CRC 91DFA1F7 Copy OK
No errors occurred
AccurateRip summary
Track 1 accurately ripped (confidence 2) [4A0D7606] (AR v2)Track 2 accurately ripped (confidence 2) [44C35EF4] (AR v2)Track 3 accurately ripped (confidence 2) [725785BA] (AR v2)Track 4 accurately ripped (confidence 2) [395E6211] (AR v2)Track 5 accurately ripped (confidence 2) [CB43F3BE] (AR v2)Track 6 accurately ripped (confidence 2) [61FAE76A] (AR v2)Track 7 accurately ripped (confidence 2) [3667596B] (AR v2)Track 8 accurately ripped (confidence 2) [E6EB52F0] (AR v2)
All tracks accurately ripped
End of status report
---- CUETools DB Plugin V2.1.6
[CTDB TOCID: sTDGyoEhDW2wyAcmmGVwm5gp5yg-] foundSubmit result: sTDGyoEhDW2wyAcmmGVwm5gp5yg- has been confirmedTrack | CTDB Status 1 | (2/2) Accurately ripped 2 | (2/2) Accurately ripped 3 | (2/2) Accurately ripped 4 | (2/2) Accurately ripped 5 | (2/2) Accurately ripped 6 | (2/2) Accurately ripped 7 | (2/2) Accurately ripped 8 | (2/2) Accurately ripped
==== Log checksum 6F3AA9ECD0A4F0F7A2A77DF1751DF79FBC1DD1E77185D57E860E0C394F2AAB56 ====

Cue CD 1

REM GENRE GoaREM DATE 2003REM DISCID 7C0F6A08REM COMMENT "ExactAudioCopy v1.3"PERFORMER "Various"TITLE "Goa Sound System Vol2 CD1"REM COMPOSER ""FILE "Various - Goa Sound System Vol2 CD1.flac" WAVE  TRACK 01 AUDIO    TITLE "AKD"    PERFORMER "AKD"    REM COMPOSER ""    INDEX 01 00:00:00  TRACK 02 AUDIO    TITLE "Flatline"    PERFORMER "Native Radio"    REM COMPOSER ""    INDEX 00 08:01:38    INDEX 01 08:03:32  TRACK 03 AUDIO    TITLE "Purple Floating (Cosma Remix)"    PERFORMER "Vibrasphere"    REM COMPOSER ""    INDEX 00 18:11:24    INDEX 01 18:13:18  TRACK 04 AUDIO    TITLE "Ocean View"    PERFORMER "Star X"    REM COMPOSER ""    INDEX 00 26:13:04    INDEX 01 26:14:73  TRACK 05 AUDIO    TITLE "Disco Valley"    PERFORMER "Astrix"    REM COMPOSER ""    INDEX 00 33:58:34    INDEX 01 34:00:28  TRACK 06 AUDIO    TITLE "Top Gun"    PERFORMER "Psy Craft"    REM COMPOSER ""    INDEX 00 42:05:57    INDEX 01 42:07:51  TRACK 07 AUDIO    TITLE "Flying Pegasus"    PERFORMER "Herbal Essence"    REM COMPOSER ""    INDEX 00 49:43:57    INDEX 01 49:45:51  TRACK 08 AUDIO    TITLE "Voices"    PERFORMER "Transporter"    REM COMPOSER ""    INDEX 00 58:54:73    INDEX 01 58:56:67

CD2

01. X-Wave & Melica - Get Ready (8:26)
02. Panick - Highway 61 (6:55)
03. Ultravoice - Crazy For You (7:46)
04. Mekanikka - War (What is it good for?) (8:07)
05. Protoculture - New Directions (8:21)
06. Fuenf D - Spiral Tune (6:59)
07. Dogma 3000 - Drums in the deep (6:50)
08. Overlords - Gods Eye On Goa (Ticon Remix) (8:04)

Log CD 2

Exact Audio Copy V1.3 from 2. September 2016
EAC extraction logfile from 27. March 2019, 0:13
Various Artists / Goa Sound System Vol.2 CD2
Used drive : TEAC CD-W524E Adapter: 1 ID: 1
Read mode : SecureUtilize accurate stream : YesDefeat audio cache : YesMake use of C2 pointers : No
Read offset correction : 686Overread into Lead-In and Lead-Out : NoFill up missing offset samples with silence : YesDelete leading and trailing silent blocks : NoNull samples used in CRC calculations : YesUsed interface : Native Win32 interface for Win NT & 2000
Used output format : User Defined EncoderSelected bitrate : 896 kBit/sQuality : HighAdd ID3 tag : NoCommand line compressor : C:\Program Files\Exact Audio Copy\FLAC\FLAC.EXEAdditional command line options : -8 -V -T "ARTIST=%artist%" -T "TITLE=%title%" -T "ALBUM=%albumtitle%" -T "DATE=%year%" -T "TRACKNUMBER=%tracknr%" -T "GENRE=%genre%" -T "COMMENT=%comment%" %hascover%--picture="%coverfile%"%hascover% %source% -o %dest%
TOC of the extracted CD
Track | Start | Length | Start sector | End sector --------------------------------------------------------- 1 | 0:00.00 | 8:26.29 | 0 | 37978 2 | 8:26.29 | 6:54.56 | 37979 | 69084 3 | 15:21.10 | 7:45.71 | 69085 | 104030 4 | 23:07.06 | 8:07.18 | 104031 | 140573 5 | 31:14.24 | 8:20.63 | 140574 | 178136 6 | 39:35.12 | 6:58.74 | 178137 | 209560 7 | 46:34.11 | 6:50.09 | 209561 | 240319 8 | 53:24.20 | 8:03.58 | 240320 | 276602
Range status and errors
Selected range
Filename I:\CD_lossless_my\VA - Goa Sound System Vol.2\CD2\Various Artists - Goa Sound System Vol.2 CD2.wav
Peak level 98.8 % Extraction speed 5.4 X Range quality 100.0 % Test CRC 7F796867 Copy CRC 7F796867 Copy OK
No errors occurred
AccurateRip summary
Track 1 accurately ripped (confidence 2) [ABAF538D] (AR v1)Track 2 accurately ripped (confidence 2) [93EB93E7] (AR v1)Track 3 accurately ripped (confidence 2) [ECBC49FD] (AR v1)Track 4 accurately ripped (confidence 2) [8090122B] (AR v1)Track 5 accurately ripped (confidence 2) [D7483452] (AR v1)Track 6 accurately ripped (confidence 2) [43D480A0] (AR v1)Track 7 accurately ripped (confidence 2) [15DE265E] (AR v1)Track 8 accurately ripped (confidence 2) [ED638DA4] (AR v1)
All tracks accurately ripped
End of status report
---- CUETools DB Plugin V2.1.6
[CTDB TOCID: TWAbjjt1qYwjEC0jLviuy2f24Tg-] foundSubmit result: TWAbjjt1qYwjEC0jLviuy2f24Tg- has been confirmedTrack | CTDB Status 1 | (2/2) Accurately ripped 2 | (2/2) Accurately ripped 3 | (2/2) Accurately ripped 4 | (2/2) Accurately ripped 5 | (2/2) Accurately ripped 6 | (2/2) Accurately ripped 7 | (2/2) Accurately ripped 8 | (2/2) Accurately ripped
==== Log checksum 114A43C695E398D814A7E24C2F8DE1B1EA13D796ACDD26759EB8B3C2A5FDFF62 ====

Cue CD 2

REM GENRE GoaREM DATE 2003REM DISCID 7E0E6808REM COMMENT "ExactAudioCopy v1.3"PERFORMER "Various Artists"TITLE "Goa Sound System Vol.2 CD2"REM COMPOSER ""FILE "Various Artists - Goa Sound System Vol.2 CD2.flac" WAVE  TRACK 01 AUDIO    TITLE "Get Ready"    PERFORMER "X-Wave & Melica"    REM COMPOSER ""    INDEX 01 00:00:00  TRACK 02 AUDIO    TITLE "Highway 61"    PERFORMER "Panick"    REM COMPOSER ""    INDEX 00 08:24:35    INDEX 01 08:26:29  TRACK 03 AUDIO    TITLE "Crazy For You"    PERFORMER "Ultravoice"    REM COMPOSER ""    INDEX 00 15:19:16    INDEX 01 15:21:10  TRACK 04 AUDIO    TITLE "War (What is it good for?)"    PERFORMER "Mekanikka"    REM COMPOSER ""    INDEX 00 23:05:12    INDEX 01 23:07:06  TRACK 05 AUDIO    TITLE "New Directions"    PERFORMER "Protoculture"    REM COMPOSER ""    INDEX 00 31:12:30    INDEX 01 31:14:24  TRACK 06 AUDIO    TITLE "Spiral Tune"    PERFORMER "Fuenf D"    REM COMPOSER ""    INDEX 00 39:33:18    INDEX 01 39:35:12  TRACK 07 AUDIO    TITLE "Drums in the deep"    PERFORMER "Dogma 3000"    REM COMPOSER ""    INDEX 00 46:32:17    INDEX 01 46:34:11  TRACK 08 AUDIO    TITLE "Gods Eye On Goa (Ticon Remix)"    PERFORMER "Overlords"    REM COMPOSER ""    INDEX 00 53:22:26    INDEX 01 53:24:20

If you like the topic, please click share to help develop our site.

To download the file disable ad blocking, and reload the page.

disable adblock How to disable ad blocking?

Download by magnet link 808 MB Download Torrent

Login using:

Similar topics



   
Current time is: 17-Jul 05:36 :: All times are UTC + 3