Doctor No - Fat Sound to the Masses- Жанр: Trance, Techno
Носитель: CD
Страна-производитель диска (релиза): Japan
Год издания: 2001
Издатель (лейбл): WEA
Номер по каталогу: WPCR-11116
Аудиокодек: FLAC (*.flac)
Тип рипа: tracks+.cue
Битрейт аудио: lossless
Продолжительность: 00:54:59
Источник (релизер): RED
Наличие сканов в содержимом раздачи: Нет
Треклист:
01. All For You [00:03:58]
02. Yesterday Star [00:04:01]
03. Corazon [00:04:02]
04. Lastima [00:04:25]
05. Catwalk [00:04:21]
06. Stripped Inside [00:03:49]
07. La Luna [00:03:44]
08. Faith And Emotions [00:03:50]
09. Heal My Bone [00:03:45]
10. Stop The GrandSlam [00:04:12]
11. Lastima (Goldmind remix) [00:04:11]
12. La Luna (Skyball Club remix) [00:05:26]
13. All for You (Galore's Flying Circus Club mix) [00:05:07]

Лог создания рипа

Exact Audio Copy V1.3 from 2. September 2016
EAC extraction logfile from 23. April 2017, 15:59
Doctor No / Fat Sound for the Masses
Used drive : PLEXTOR DVDR PX-716A Adapter: 1 ID: 1
Read mode : SecureUtilize accurate stream : YesDefeat audio cache : YesMake use of C2 pointers : No
Read offset correction : 30Overread into Lead-In and Lead-Out : YesFill up missing offset samples with silence : YesDelete leading and trailing silent blocks : NoNull samples used in CRC calculations : YesUsed interface : Native Win32 interface for Win NT & 2000Gap handling : Appended to previous track
Used output format : User Defined EncoderSelected bitrate : 896 kBit/sQuality : HighAdd ID3 tag : NoCommand line compressor : E:\Exact Audio Copy\Flac\flac.exeAdditional command line options : -8 -V -T "ARTIST=%artist%" -T "TITLE=%title%" -T "ALBUM=%albumtitle%" -T "DATE=%year%" -T "TRACKNUMBER=%tracknr%" -T "TOTALTRACKS=%numtracks%" -T "GENRE=%genre%" -T "ALBUMARTIST=%albumartist%" -T "ALBUM ARTIST=%albumartist%" -T "COMMENT=EAC Secure Mode, Test & Copy, AccurateRip, FLAC -8" %source%
TOC of the extracted CD
Track | Start | Length | Start sector | End sector --------------------------------------------------------- 1 | 0:00.00 | 3:58.60 | 0 | 17909 2 | 3:58.60 | 4:01.70 | 17910 | 36054 3 | 8:00.55 | 4:02.65 | 36055 | 54269 4 | 12:03.45 | 4:25.65 | 54270 | 74209 5 | 16:29.35 | 4:21.10 | 74210 | 93794 6 | 20:50.45 | 3:49.20 | 93795 | 110989 7 | 24:39.65 | 3:44.15 | 110990 | 127804 8 | 28:24.05 | 3:50.60 | 127805 | 145114 9 | 32:14.65 | 3:45.55 | 145115 | 162044 10 | 36:00.45 | 4:12.67 | 162045 | 181011 11 | 40:13.37 | 4:11.40 | 181012 | 199876 12 | 44:25.02 | 5:26.73 | 199877 | 224399 13 | 49:52.00 | 5:07.12 | 224400 | 247436 14 | 57:31.12 | 15:01.33 | 258837 | 326444
Track 1
Filename E:\PT\Doctor No - Fat Sound for the Masses (2001) [FLAC] {WPCR-11116}\01 - All for You.wav
Pre-gap length 0:00:02.00
Peak level 95.2 % Extraction speed 6.7 X Track quality 100.0 % Test CRC FBE833BB Copy CRC FBE833BB Track not present in AccurateRip database Copy OK
Track 2
Filename E:\PT\Doctor No - Fat Sound for the Masses (2001) [FLAC] {WPCR-11116}\02 - Yesterday Star.wav
Pre-gap length 0:00:00.60
Peak level 99.2 % Extraction speed 7.4 X Track quality 100.0 % Test CRC 8546477F Copy CRC 8546477F Track not present in AccurateRip database Copy OK
Track 3
Filename E:\PT\Doctor No - Fat Sound for the Masses (2001) [FLAC] {WPCR-11116}\03 - Corazon.wav
Peak level 80.2 % Extraction speed 7.9 X Track quality 100.0 % Test CRC 7C68DD4D Copy CRC 7C68DD4D Track not present in AccurateRip database Copy OK
Track 4
Filename E:\PT\Doctor No - Fat Sound for the Masses (2001) [FLAC] {WPCR-11116}\04 - Lastima.wav
Pre-gap length 0:00:00.30
Peak level 97.7 % Extraction speed 8.6 X Track quality 100.0 % Test CRC A2B09751 Copy CRC A2B09751 Track not present in AccurateRip database Copy OK
Track 5
Filename E:\PT\Doctor No - Fat Sound for the Masses (2001) [FLAC] {WPCR-11116}\05 - Catwalk.wav
Pre-gap length 0:00:01.05
Peak level 85.2 % Extraction speed 9.0 X Track quality 100.0 % Test CRC 3458947E Copy CRC 3458947E Track not present in AccurateRip database Copy OK
Track 6
Filename E:\PT\Doctor No - Fat Sound for the Masses (2001) [FLAC] {WPCR-11116}\06 - Stripped Inside.wav
Peak level 89.1 % Extraction speed 9.3 X Track quality 100.0 % Test CRC D21AD917 Copy CRC D21AD917 Track not present in AccurateRip database Copy OK
Track 7
Filename E:\PT\Doctor No - Fat Sound for the Masses (2001) [FLAC] {WPCR-11116}\07 - La Luna.wav
Peak level 86.1 % Extraction speed 9.5 X Track quality 100.0 % Test CRC 32BD73ED Copy CRC 32BD73ED Track not present in AccurateRip database Copy OK
Track 8
Filename E:\PT\Doctor No - Fat Sound for the Masses (2001) [FLAC] {WPCR-11116}\08 - Faith and Emotions.wav
Pre-gap length 0:00:02.10
Peak level 100.0 % Extraction speed 9.6 X Track quality 100.0 % Test CRC 139C5D89 Copy CRC 139C5D89 Track not present in AccurateRip database Copy OK
Track 9
Filename E:\PT\Doctor No - Fat Sound for the Masses (2001) [FLAC] {WPCR-11116}\09 - Heal My Bone.wav
Pre-gap length 0:00:01.25
Peak level 91.2 % Extraction speed 8.3 X Track quality 99.9 % Test CRC F33C941D Copy CRC F33C941D Track not present in AccurateRip database Copy OK
Track 10
Filename E:\PT\Doctor No - Fat Sound for the Masses (2001) [FLAC] {WPCR-11116}\10 - Stop the Grandslam.wav
Pre-gap length 0:00:01.38
Peak level 97.5 % Extraction speed 10.0 X Track quality 100.0 % Test CRC 0489DF6C Copy CRC 0489DF6C Track not present in AccurateRip database Copy OK
Track 11
Filename E:\PT\Doctor No - Fat Sound for the Masses (2001) [FLAC] {WPCR-11116}\11 - Lastima (Goldmind remix).wav
Pre-gap length 0:00:01.47
Peak level 89.7 % Extraction speed 10.2 X Track quality 100.0 % Test CRC EC1C945F Copy CRC EC1C945F Track not present in AccurateRip database Copy OK
Track 12
Filename E:\PT\Doctor No - Fat Sound for the Masses (2001) [FLAC] {WPCR-11116}\12 - La Luna (Skyball Club remix).wav
Pre-gap length 0:00:00.57
Peak level 92.0 % Extraction speed 9.4 X Track quality 99.9 % Test CRC 7F330CBA Copy CRC 7F330CBA Track not present in AccurateRip database Copy OK
Track 13
Filename E:\PT\Doctor No - Fat Sound for the Masses (2001) [FLAC] {WPCR-11116}\13 - All for You (Galore's Flying Circus Club mix).wav
Pre-gap length 0:00:01.35
Peak level 100.0 % Extraction speed 10.6 X Track quality 100.0 % Test CRC CC9FD0B6 Copy CRC CC9FD0B6 Track not present in AccurateRip database Copy OK
None of the tracks are present in the AccurateRip database
No errors occurred
End of status report
---- AcoustID Plugin V1.2.0
Total fingerprints: 13
---- CUETools DB Plugin V2.1.6
[CTDB TOCID: XdHdJcpQr2YAuhQCNU4oLcieb7o-] disk not present in databaseSubmit result: 请求被中止: 请求已被取消。
==== Log checksum A30AED100459B01196DE7C1DCF266220D2F65409804E2B2D6C66DC21E87C627F ====

Содержание индексной карты (.CUE)

REM GENRE ElectronicREM DATE 2001REM DISCID C311000EREM COMMENT "ExactAudioCopy v1.3"PERFORMER "Doctor No"TITLE "Fat Sound for the Masses"REM COMPOSER ""FILE "01 - All for You.wav" WAVE  TRACK 01 AUDIO    TITLE "All for You"    PERFORMER "Doctor No"    REM COMPOSER ""    INDEX 01 00:00:00  TRACK 02 AUDIO    TITLE "Yesterday Star"    PERFORMER "Doctor No"    REM COMPOSER ""    INDEX 00 03:58:00FILE "02 - Yesterday Star.wav" WAVE    INDEX 01 00:00:00FILE "03 - Corazon.wav" WAVE  TRACK 03 AUDIO    TITLE "Corazon"    PERFORMER "Doctor No"    REM COMPOSER ""    INDEX 01 00:00:00  TRACK 04 AUDIO    TITLE "Lastima"    PERFORMER "Doctor No"    REM COMPOSER ""    INDEX 00 04:02:35FILE "04 - Lastima.wav" WAVE    INDEX 01 00:00:00  TRACK 05 AUDIO    TITLE "Catwalk"    PERFORMER "Doctor No"    REM COMPOSER ""    INDEX 00 04:24:60FILE "05 - Catwalk.wav" WAVE    INDEX 01 00:00:00FILE "06 - Stripped Inside.wav" WAVE  TRACK 06 AUDIO    TITLE "Stripped Inside"    PERFORMER "Doctor No"    REM COMPOSER ""    INDEX 01 00:00:00FILE "07 - La Luna.wav" WAVE  TRACK 07 AUDIO    TITLE "La Luna"    PERFORMER "Doctor No"    REM COMPOSER ""    INDEX 01 00:00:00  TRACK 08 AUDIO    TITLE "Faith and Emotions"    PERFORMER "Doctor No"    REM COMPOSER ""    INDEX 00 03:42:05FILE "08 - Faith and Emotions.wav" WAVE    INDEX 01 00:00:00  TRACK 09 AUDIO    TITLE "Heal My Bone"    PERFORMER "Doctor No"    REM COMPOSER ""    INDEX 00 03:49:35FILE "09 - Heal My Bone.wav" WAVE    INDEX 01 00:00:00  TRACK 10 AUDIO    TITLE "Stop the Grandslam"    PERFORMER "Doctor No"    REM COMPOSER ""    INDEX 00 03:44:17FILE "10 - Stop the Grandslam.wav" WAVE    INDEX 01 00:00:00  TRACK 11 AUDIO    TITLE "Lastima (Goldmind remix)"    PERFORMER "Doctor No"    REM COMPOSER ""    INDEX 00 04:11:20FILE "11 - Lastima (Goldmind remix).wav" WAVE    INDEX 01 00:00:00  TRACK 12 AUDIO    TITLE "La Luna (Skyball Club remix)"    PERFORMER "Doctor No"    REM COMPOSER ""    INDEX 00 04:10:58FILE "12 - La Luna (Skyball Club remix).wav" WAVE    INDEX 01 00:00:00  TRACK 13 AUDIO    TITLE "All for You (Galore's Flying Circus Club mix)"    PERFORMER "Doctor No"    REM COMPOSER ""    INDEX 00 05:25:38FILE "13 - All for You (Galore's Flying Circus Club mix).wav" WAVE    INDEX 01 00:00:00

If you like the topic, please click share to help develop our site.

To download the file disable ad blocking, and reload the page.

disable adblock How to disable ad blocking?

Download by magnet link 386 MB Download Torrent

Login using:

Similar topics



   
Current time is: 17-Jul 05:19 :: All times are UTC + 3