Tom Cloud / The Sky Is The Limit
Жанр: Trance
Носитель: CD
Страна-производитель диска (релиза): Netherlands
Год издания: 2012
Издатель (лейбл): In Trance We Trust
Номер по каталогу: ITWT 005 Album
Страна исполнителя (группы): Germany
Аудиокодек: FLAC (*.flac)
Тип рипа: image+.cue
Продолжительность: 01:19:32
Источник: собственный рип
Наличие сканов в содержимом раздачи: да
Треклист:
01. Tom Cloud - 4 O'Clock In The Morning (Promise Me) 4:39
02. Tom Cloud - Nightingale 8:00
03. Tom Cloud - The Sky Is The Limit 8:32
04. Tom Cloud - C-Sharp 2012 3:56
05. Tom Cloud with David Forbes feat. Antonia Lucas - Crazy 4 U 4:15
06. Tom Cloud - Stella 8:14
07. Tom Cloud - Confusion 6:41
08. Tom Cloud - Empire 9:42
09. Tom Cloud - After Dark 6:34
10. Tom Cloud feat. Antonia Lucas - Do It Over 4:11
11. Tom Cloud - The Darkest Star 7:27
12. Tom Cloud - Disturbia 7:20

Лог создания рипа

Exact Audio Copy V1.3 from 2. September 2016
Отчёт EAC об извлечении, выполненном 6. мая 2019, 13:02
Tom Cloud / The Sky Is The Limit
Дисковод: ASUS DRW-24D5MT Adapter: 1 ID: 1
Режим чтения : ДостоверностьИспользование точного потока : ДаОтключение кэша аудио : ДаИспользование указателей C2 : Нет
Коррекция смещения при чтении : 6Способность читать области Lead-in и Lead-out : НетЗаполнение пропущенных сэмплов тишиной : ДаУдаление блоков с тишиной в начале и конце : НетПри вычислениях CRC использовались нулевые сэмплы : ДаИнтерфейс : Встроенный Win32-интерфейс для Win NT/2000
Выходной формат : Пользовательский кодировщикВыбранный битрейт : 896 kBit/sКачество : ВысокийДобавление ID3-тега : НетУтилита сжатия : C:\Program Files (x86)\Exact Audio Copy\flac-1.3.1-win\win64\flac.exeДополнительные параметры : -8 -V -T "ARTIST=%artist%" -T "TITLE=%title%" -T "ALBUM=%albumtitle%" -T "DATE=%year%" -T "TRACKNUMBER=%tracknr%/%numtracks%" -T "GENRE=%genre%" -T "COMMENT=%comment%" %source% -o %dest%
TOC извлечённого CD
Трек | Старт | Длительность | Начальный сектор | Конечный сектор --------------------------------------------------------------------- 1 | 0:00.00 | 4:39.19 | 0 | 20943 2 | 4:39.19 | 7:59.63 | 20944 | 56931 3 | 12:39.07 | 8:31.73 | 56932 | 95329 4 | 21:11.05 | 3:55.63 | 95330 | 113017 5 | 25:06.68 | 4:14.63 | 113018 | 132130 6 | 29:21.56 | 8:14.11 | 132131 | 169191 7 | 37:35.67 | 6:40.45 | 169192 | 199236 8 | 44:16.37 | 9:42.35 | 199237 | 242921 9 | 53:58.72 | 6:34.31 | 242922 | 272502 10 | 60:33.28 | 4:11.03 | 272503 | 291330 11 | 64:44.31 | 7:27.26 | 291331 | 324881 12 | 72:11.57 | 7:19.70 | 324882 | 357876
Характеристики диапазона извлечения и сообщения об ошибках
Выбранный диапазон
Имя файла F:\Lossless\_DJ Stakan\Tom Cloud - The Sky Is The Limit.wav
Пиковый уровень 100.0 % Скорость извлечения 1.4 X Качество диапазона 100.0 % CRC теста FBC1E20B CRC копии FBC1E20B Копирование... OK
Ошибок не произошло
AccurateRip: сводка
Трек 1 : извлечено точно (доверие 4) [C493493E] (AR v2)Трек 2 : извлечено точно (доверие 4) [8BD434F6] (AR v2)Трек 3 : извлечено точно (доверие 4) [346826A8] (AR v2)Трек 4 : извлечено точно (доверие 4) [07AE63A9] (AR v2)Трек 5 : извлечено точно (доверие 4) [DF664FC7] (AR v2)Трек 6 : извлечено точно (доверие 4) [5FC8E14F] (AR v2)Трек 7 : извлечено точно (доверие 4) [F482E19F] (AR v2)Трек 8 : извлечено точно (доверие 4) [F666377D] (AR v2)Трек 9 : извлечено точно (доверие 4) [6283442E] (AR v2)Трек 10 : извлечено точно (доверие 4) [8DF9BC8F] (AR v2)Трек 11 : извлечено точно (доверие 4) [118E163C] (AR v2)Трек 12 : извлечено точно (доверие 4) [3310C256] (AR v2)
Все треки извлечены точно
Конец отчёта
---- CUETools DB Plugin V2.1.6
[CTDB TOCID: J_fk73upMgkBMlghXwI9wwHtTi8-] foundSubmit result: J_fk73upMgkBMlghXwI9wwHtTi8- has been confirmedTrack | CTDB Status 1 | (3/3) Accurately ripped 2 | (3/3) Accurately ripped 3 | (3/3) Accurately ripped 4 | (3/3) Accurately ripped 5 | (3/3) Accurately ripped 6 | (3/3) Accurately ripped 7 | (3/3) Accurately ripped 8 | (3/3) Accurately ripped 9 | (3/3) Accurately ripped 10 | (3/3) Accurately ripped 11 | (3/3) Accurately ripped 12 | (3/3) Accurately ripped
==== Контрольная сумма отчёта B0DC4DB0B0AFE164278CC99282AC28056B625D299458FAB94DF3267CB6F8F338 ====

Содержание индексной карты (.CUE)

REM GENRE TranceREM DATE 2012REM DISCID AC12A30CREM COMMENT "ExactAudioCopy v1.3"PERFORMER "Tom Cloud"TITLE "The Sky Is The Limit"REM COMPOSER ""FILE "Tom Cloud - The Sky Is The Limit.flac" WAVE  TRACK 01 AUDIO    TITLE "4 O'Clock In The Morning (Promise Me)"    PERFORMER "Tom Cloud"    REM COMPOSER ""    INDEX 01 00:00:00  TRACK 02 AUDIO    TITLE "Nightingale"    PERFORMER "Tom Cloud"    REM COMPOSER ""    INDEX 01 04:39:19  TRACK 03 AUDIO    TITLE "The Sky Is The Limit"    PERFORMER "Tom Cloud"    REM COMPOSER ""    INDEX 01 12:39:07  TRACK 04 AUDIO    TITLE "C-Sharp 2012"    PERFORMER "Tom Cloud"    REM COMPOSER ""    INDEX 01 21:11:05  TRACK 05 AUDIO    TITLE "Crazy 4 U"    PERFORMER "Tom Cloud with David Forbes feat. Antonia Lucas"    REM COMPOSER ""    INDEX 01 25:06:68  TRACK 06 AUDIO    TITLE "Stella"    PERFORMER "Tom Cloud"    REM COMPOSER ""    INDEX 01 29:21:56  TRACK 07 AUDIO    TITLE "Confusion"    PERFORMER "Tom Cloud"    REM COMPOSER ""    INDEX 01 37:35:67  TRACK 08 AUDIO    TITLE "Empire"    PERFORMER "Tom Cloud"    REM COMPOSER ""    INDEX 01 44:16:37  TRACK 09 AUDIO    TITLE "After Dark"    PERFORMER "Tom Cloud"    REM COMPOSER ""    INDEX 01 53:58:72  TRACK 10 AUDIO    TITLE "Do It Over"    PERFORMER "Tom Cloud feat. Antonia Lucas"    REM COMPOSER ""    INDEX 01 60:33:28  TRACK 11 AUDIO    TITLE "The Darkest Star"    PERFORMER "Tom Cloud"    REM COMPOSER ""    INDEX 01 64:44:31  TRACK 12 AUDIO    TITLE "Disturbia"    PERFORMER "Tom Cloud"    REM COMPOSER ""    INDEX 01 72:11:57

If you like the topic, please click share to help develop our site.

To download the file disable ad blocking, and reload the page.

disable adblock How to disable ad blocking?

Download by magnet link 622 MB Download Torrent

Login using:

Similar topics

(Trance, Goa Trance) [CDM] Laz - Toma - 1999, FLAC (tracks+.cue), lossless
 174 MB   0 | 0   03-Nov-17 04:10   2


   
Current time is: 17-Jul 05:20 :: All times are UTC + 3