Храброе сердце. Заговор в королевстве / Ritter Rost 2: Das Schrottkomplott
Страна: Германия
Жанр: мультфильм, фэнтези, комедия, приключения, семейный
Год выпуска: 2017
Продолжительность: 01:23:15-Перевод: Профессиональный (дублированный)
Субтитры: русские
Оригинальная аудиодорожка: нет-Режиссер: Томас Боденштайн / Thomas Bodenstein, Маркус Хаманн / Marcus Hamann-В ролях: Том Герхардт, Йелла Хаазе, Бьянка Хайнике, Кристоф Мария Хербст, Детлеф Редингер, Дастин Земмельрогге-Описание: В королевстве Металломии финансовый кризис. Из-за отсутствия денег в казне королю приходится распустить армию, и власть в королевстве захватывает шеф полиции. Рыцарь Расти должен осуществить мечту своего отца и стать защитником королевства. Вместе со своими друзьями: придворной дамой Бо и Дракошей, его ждут веселые, опасные и захватывающие приключения.- -Качество видео: WEBRip 1080p
Формат видео: MKV
Видео: 1912x1072 (16:9), 25.000 fps, AVC, 3999 Кбит/сек
Аудио 1: 48.0 KHz, AAC LC, 2 ch ~192 kbps | rus
Аудио 2: 44.1 KHz, AAC LC, 2 ch ~192 kbps | ukr-

Сэмпл-

MediaInfo


Формат                                   : Matroska
Версия формата                           : Version 4
Размер файла                             : 2,55 Гбайт
Продолжительность                        : 1 ч. 23 м.
Общий поток                              : 4384 Кбит/сек
Дата кодирования                         : UTC 2019-05-11 13:18:03
Программа кодирования                    : mkvmerge v33.1.0 ('Primrose') 64-bit
Библиотека кодирования                   : libebml v1.3.7 + libmatroska v1.5.0
Видео
Идентификатор                            : 1
Формат                                   : AVC
Формат/Информация                        : Advanced Video Codec
Профиль формата                          : [email protected]
Настройки формата                        : CABAC / 3 Ref Frames
Параметр CABAC формата                   : Да
Параметр RefFrames формата               : 3 кадра
Идентификатор кодека                     : V_MPEG4/ISO/AVC
Продолжительность                        : 1 ч. 23 м.
Битрейт                                  : 3999 Кбит/сек
Ширина                                   : 1912 пикселей
Высота                                   : 1072 пикселя
Соотношение сторон                       : 16:9
Режим частоты кадров                     : Постоянный
Частота кадров                           : 25,000 кадров/сек
Цветовое пространство                    : YUV
Субдискретизация насыщенности            : 4:2:0
Битовая глубина                          : 8 бит
Тип развёртки                            : Прогрессивная
Бит/(Пиксели*Кадры)                      : 0.078
Размер потока                            : 2,33 Гбайт (91%)
Default                                  : Да
Forced                                   : Нет
Аудио #1
Идентификатор                            : 2
Формат                                   : AAC LC
Формат/Информация                        : Advanced Audio Codec Low Complexity
Идентификатор кодека                     : A_AAC-2
Продолжительность                        : 1 ч. 23 м.
Битрейт                                  : 192 Кбит/сек
Каналы                                   : 2 канала
ChannelLayout                            : L R
Частота                                  : 48,0 КГц
Частота кадров                           : 46,875 кадров/сек (1024 SPF)
Метод сжатия                             : С потерями
Размер потока                            : 114 Мбайт (4%)
Язык                                     : Russian
Default                                  : Да
Forced                                   : Нет
Аудио #2
Идентификатор                            : 3
Формат                                   : AAC LC
Формат/Информация                        : Advanced Audio Codec Low Complexity
Идентификатор кодека                     : A_AAC-2
Продолжительность                        : 1 ч. 23 м.
Битрейт                                  : 192 Кбит/сек
Каналы                                   : 2 канала
ChannelLayout                            : L R
Частота                                  : 44,1 КГц
Частота кадров                           : 43,066 кадра/сек (1024 SPF)
Метод сжатия                             : С потерями
Размер потока                            : 113 Мбайт (4%)
Язык                                     : Ukrainian
Default                                  : Нет
Forced                                   : Нет
Текст
Идентификатор                            : 4
Формат                                   : UTF-8
Идентификатор кодека                     : S_TEXT/UTF8
Идентификатор кодека/Информация          : UTF-8 Plain Text
Продолжительность                        : 1 ч. 18 м.
Битрейт                                  : 84 бит/сек
ElementCount                             : 1138
Размер потока                            : 48,3 Кбайт (0%)
Язык                                     : Russian
Default                                  : Нет
Forced                                   : Нет

Скриншоты



If you like the topic, please click share to help develop our site.

To download the file disable ad blocking, and reload the page.

disable adblock How to disable ad blocking?

Download by magnet link 2.55 GB Download Torrent

Login using:

Similar topics

Тачки: Трилогия / Cars: Trilogy (2006-2017) BDRemux [H.264/1080p]
 73.1 GB   10 | 1   02-Apr-18 18:50   9


   
Current time is: 20-Jul 10:29 :: All times are UTC + 3