Муми-тролли и зимняя сказка / Muumien taikatalvi
Страна: Финляндия, Польша
Жанр: мультфильм, фэнтези, комедия, приключения, семейный
Год выпуска: 2017
Продолжительность: 01:22:29-Перевод: Профессиональный (дублированный)
Субтитры: русские
Оригинальная аудиодорожка: нет-Режиссер: Ира Карпелан / Ira Carpelan, Якуб Вронски / Jakub Wronski-В ролях: Акира Такаки, Никлас Акерфельт, Веса Вьерикко, Ойва Лохтандер, Мария Сид, Диандра Флорес, Саара Лехтонен, Нина Хуккинен, Лин Готони, Билл Скарсгард-Описание: Необыкновенная история происходит в долине муми-троллей, волшебной стране, где живут эти сказочные персонажи. Муми-троллю не спится, и вместо спячки он решает познакомиться с зимой. Встречая странных существ, блуждающих по заснеженной долине муми-троллей в зимнем сумраке, главный герой пытается узнать, кто же такой — этот чудесный гость Рождество…- -Качество видео: WEBRip 1080p
Формат видео: MKV
Видео: 1920x1032 (1.85:1), 24.000 fps, AVC, 4006 Кбит/сек
Аудио: Russian, 48.0 KHz, AAC LC, 2 ch ~192 kbps-

Сэмпл-

MediaInfo


Формат                                   : Matroska
Версия формата                           : Version 4
Размер файла                             : 2,42 Гбайт
Продолжительность                        : 1 ч. 22 м.
Общий поток                              : 4200 Кбит/сек
Название фильма                          : Муми-тролли и зимняя сказка 2017 WEB 1080p ********
Дата кодирования                         : UTC 2019-05-11 12:58:21
Программа кодирования                    : mkvmerge v33.1.0 ('Primrose') 64-bit
Библиотека кодирования                   : libebml v1.3.7 + libmatroska v1.5.0
Видео
Идентификатор                            : 1
Формат                                   : AVC
Формат/Информация                        : Advanced Video Codec
Профиль формата                          : [email protected]
Настройки формата                        : CABAC / 3 Ref Frames
Параметр CABAC формата                   : Да
Параметр RefFrames формата               : 3 кадра
Параметр GOP формата                     : M=1, N=72
Идентификатор кодека                     : V_MPEG4/ISO/AVC
Продолжительность                        : 1 ч. 22 м.
Битрейт                                  : 4006 Кбит/сек
Ширина                                   : 1920 пикселей
Высота                                   : 1032 пикселя
Соотношение сторон                       : 1,85:1
Режим частоты кадров                     : Постоянный
Частота кадров                           : 24,000 кадра/сек
Цветовое пространство                    : YUV
Субдискретизация насыщенности            : 4:2:0
Битовая глубина                          : 8 бит
Тип развёртки                            : Прогрессивная
Бит/(Пиксели*Кадры)                      : 0.084
Размер потока                            : 2,31 Гбайт (95%)
Default                                  : Да
Forced                                   : Нет
Аудио
Идентификатор                            : 2
Формат                                   : AAC LC
Формат/Информация                        : Advanced Audio Codec Low Complexity
Идентификатор кодека                     : A_AAC-2
Продолжительность                        : 1 ч. 22 м.
Битрейт                                  : 192 Кбит/сек
Каналы                                   : 2 канала
ChannelLayout                            : L R
Частота                                  : 48,0 КГц
Частота кадров                           : 46,875 кадров/сек (1024 SPF)
Метод сжатия                             : С потерями
Задержка видео                           : 19 мс.
Размер потока                            : 113 Мбайт (5%)
Язык                                     : Russian
Default                                  : Да
Forced                                   : Нет
Текст
Идентификатор                            : 3
Формат                                   : UTF-8
Идентификатор кодека                     : S_TEXT/UTF8
Идентификатор кодека/Информация          : UTF-8 Plain Text
Продолжительность                        : 1 ч. 15 м.
Битрейт                                  : 117 бит/сек
ElementCount                             : 1552
Размер потока                            : 64,8 Кбайт (0%)
Язык                                     : Russian
Default                                  : Нет
Forced                                   : Нет

Скриншоты



If you like the topic, please click share to help develop our site.

To download the file disable ad blocking, and reload the page.

disable adblock How to disable ad blocking?

Download by magnet link 2.42 GB Download Torrent

Login using:

Similar topics

Тачки: Трилогия / Cars: Trilogy (2006-2017) BDRemux [H.264/1080p]
 73.1 GB   10 | 1   02-Apr-18 18:50   9


   
Current time is: 20-Jul 10:59 :: All times are UTC + 3