Актуальные Танцы (Сборник Электронной Танцевальной Сцены)
Жанр: breaks, drum'n'bass
Носитель: CD
Страна-производитель диска (релиза): Украина
Год издания: 2002
Издатель (лейбл): Moon Records
Номер по каталогу: MNCD-165
Аудиокодек: FLAC (*.flac)
Тип рипа: tracks+.cue
Продолжительность: 55:04
Источник: собственный рип
Наличие сканов в содержимом раздачи: да
Треклист:
01. MC Lumen - Make Them Dance (4:10)
02. Kind Of Zero - Далёко (3:22)
03. Jimmy Pavloff - I Wont Stop Rockin (5:28)
04. No Comment - Yo-Yo (5:04)
05. MAX eNeRGy - Get Ready For The Bass (6:28)
06. Electric DJ's - Baskerville (4:40)
07. Zloykakpes - Я Заебался (4:11)
08. DJ Невiдомий - Мыши (7:37)
09. Алексей Павлов - Поезд (7:24)
10. Electric DJ's vs Joor - Armagedon (5:35)
11. MAX eNeRGy - Jazzy Outro (1:04)

Лог создания рипа

Exact Audio Copy V1.3 from 2. September 2016
EAC extraction logfile from 6. May 2019, 20:16
Various / Chiken Records: Актуальные Танцы (Сборник Электронной Танцевальной Сцены)
Used drive : TEAC CD-W524E Adapter: 1 ID: 1
Read mode : SecureUtilize accurate stream : YesDefeat audio cache : YesMake use of C2 pointers : No
Read offset correction : 686Overread into Lead-In and Lead-Out : NoFill up missing offset samples with silence : YesDelete leading and trailing silent blocks : NoNull samples used in CRC calculations : YesUsed interface : Native Win32 interface for Win NT & 2000Gap handling : Appended to previous track
Used output format : User Defined EncoderSelected bitrate : 896 kBit/sQuality : HighAdd ID3 tag : NoCommand line compressor : C:\Program Files\Exact Audio Copy\FLAC\FLAC.EXEAdditional command line options : -8 -V -T "ARTIST=%artist%" -T "TITLE=%title%" -T "ALBUM=%albumtitle%" -T "DATE=%year%" -T "TRACKNUMBER=%tracknr%" -T "GENRE=%genre%" -T "COMMENT=%comment%" %hascover%--picture="%coverfile%"%hascover% %source% -o %dest%
TOC of the extracted CD
Track | Start | Length | Start sector | End sector --------------------------------------------------------- 1 | 0:00.00 | 4:09.57 | 0 | 18731 2 | 4:09.57 | 3:22.05 | 18732 | 33886 3 | 7:31.62 | 5:28.18 | 33887 | 58504 4 | 13:00.05 | 5:03.47 | 58505 | 81276 5 | 18:03.52 | 6:28.04 | 81277 | 110380 6 | 24:31.56 | 4:40.17 | 110381 | 131397 7 | 29:11.73 | 4:11.22 | 131398 | 150244 8 | 33:23.20 | 7:37.32 | 150245 | 184551 9 | 41:00.52 | 7:24.15 | 184552 | 217866 10 | 48:24.67 | 5:34.48 | 217867 | 242964 11 | 53:59.40 | 1:04.36 | 242965 | 247800
Track 1
Filename I:\CD_lossless_my\VA - Актуальные танцы (2002)\01. MC Lumen - Make Them Dance.wav
Pre-gap length 0:00:02.00
Peak level 100.0 % Extraction speed 2.8 X Track quality 100.0 % Test CRC 0D41B3C0 Copy CRC 0D41B3C0 Track not present in AccurateRip database Copy OK
Track 2
Filename I:\CD_lossless_my\VA - Актуальные танцы (2002)\02. Kind Of Zero - Далёко.wav
Peak level 89.1 % Extraction speed 2.7 X Track quality 100.0 % Test CRC CACDE214 Copy CRC CACDE214 Track not present in AccurateRip database Copy OK
Track 3
Filename I:\CD_lossless_my\VA - Актуальные танцы (2002)\03. Jimmy Pavloff - I Wont Stop Rockin.wav
Peak level 100.0 % Extraction speed 3.4 X Track quality 100.0 % Test CRC 4A7E98D1 Copy CRC 4A7E98D1 Track not present in AccurateRip database Copy OK
Track 4
Filename I:\CD_lossless_my\VA - Актуальные танцы (2002)\04. No Comment - Yo-Yo.wav
Peak level 100.0 % Extraction speed 3.8 X Track quality 100.0 % Test CRC A36A1376 Copy CRC A36A1376 Track not present in AccurateRip database Copy OK
Track 5
Filename I:\CD_lossless_my\VA - Актуальные танцы (2002)\05. MAX eNeRGy - Get Ready For The Bass.wav
Peak level 81.3 % Extraction speed 4.0 X Track quality 100.0 % Test CRC 90261620 Copy CRC 90261620 Track not present in AccurateRip database Copy OK
Track 6
Filename I:\CD_lossless_my\VA - Актуальные танцы (2002)\06. Electric DJ's - Baskerville.wav
Peak level 100.0 % Extraction speed 4.2 X Track quality 100.0 % Test CRC 80D67792 Copy CRC 80D67792 Track not present in AccurateRip database Copy OK
Track 7
Filename I:\CD_lossless_my\VA - Актуальные танцы (2002)\07. Zloykakpes - Я Заебался.wav
Peak level 100.0 % Extraction speed 3.0 X Track quality 99.9 % Test CRC F10B54AB Copy CRC F10B54AB Track not present in AccurateRip database Copy OK
Track 8
Filename I:\CD_lossless_my\VA - Актуальные танцы (2002)\08. DJ Невiдомий - Мыши.wav
Peak level 80.4 % Extraction speed 4.9 X Track quality 100.0 % Test CRC 27721EC3 Copy CRC 27721EC3 Track not present in AccurateRip database Copy OK
Track 9
Filename I:\CD_lossless_my\VA - Актуальные танцы (2002)\09. Алексей Павлов - Поезд.wav
Peak level 100.0 % Extraction speed 3.8 X Track quality 99.9 % Test CRC 16C0B4CF Copy CRC 16C0B4CF Track not present in AccurateRip database Copy OK
Track 10
Filename I:\CD_lossless_my\VA - Актуальные танцы (2002)\10. Electric DJ's vs Joor - Armagedon.wav
Peak level 100.0 % Extraction speed 3.7 X Track quality 99.9 % Test CRC A607F618 Copy CRC A607F618 Track not present in AccurateRip database Copy OK
Track 11
Filename I:\CD_lossless_my\VA - Актуальные танцы (2002)\11. MAX eNeRGy - Jazzy Outro.wav
Peak level 100.0 % Extraction speed 3.8 X Track quality 100.0 % Test CRC 183160AC Copy CRC 183160AC Track not present in AccurateRip database Copy OK
None of the tracks are present in the AccurateRip database
No errors occurred
End of status report
---- CUETools DB Plugin V2.1.6
[CTDB TOCID: N_PGYhZWw1J8BsXedVEqr5Lk35M-] disk not present in databaseSubmit result: N_PGYhZWw1J8BsXedVEqr5Lk35M- has been uploaded
==== Log checksum 410AB678D5307DA42C7C8B7599BC20EA3257A7F0071D28FEC43DC744369684DA ====

Содержание индексной карты (.CUE)

REM DATE 2002REM DISCID 840CE80BREM COMMENT "ExactAudioCopy v1.3"PERFORMER "Various"TITLE "Chiken Records: Актуальные Танцы (Сборник Электронной Танцевальной Сцены)"REM COMPOSER ""FILE "01. MC Lumen - Make Them Dance.wav" WAVE  TRACK 01 AUDIO    TITLE "Make Them Dance"    PERFORMER "MC Lumen"    REM COMPOSER ""    INDEX 01 00:00:00FILE "02. Kind Of Zero - Далёко.wav" WAVE  TRACK 02 AUDIO    TITLE "Далёко"    PERFORMER "Kind Of Zero"    REM COMPOSER ""    INDEX 01 00:00:00FILE "03. Jimmy Pavloff - I Wont Stop Rockin.wav" WAVE  TRACK 03 AUDIO    TITLE "I Wont Stop Rockin"    PERFORMER "Jimmy Pavloff"    REM COMPOSER ""    INDEX 01 00:00:00FILE "04. No Comment - Yo-Yo.wav" WAVE  TRACK 04 AUDIO    TITLE "Yo-Yo"    PERFORMER "No Comment"    REM COMPOSER ""    INDEX 01 00:00:00FILE "05. MAX eNeRGy - Get Ready For The Bass.wav" WAVE  TRACK 05 AUDIO    TITLE "Get Ready For The Bass"    PERFORMER "MAX eNeRGy"    REM COMPOSER ""    INDEX 01 00:00:00FILE "06. Electric DJ's - Baskerville.wav" WAVE  TRACK 06 AUDIO    TITLE "Baskerville"    PERFORMER "Electric DJ's"    REM COMPOSER ""    INDEX 01 00:00:00FILE "07. Zloykakpes - Я Заебался.wav" WAVE  TRACK 07 AUDIO    TITLE "Я Заебался"    PERFORMER "Zloykakpes"    REM COMPOSER ""    INDEX 01 00:00:00FILE "08. DJ Невiдомий - Мыши.wav" WAVE  TRACK 08 AUDIO    TITLE "Мыши"    PERFORMER "DJ Невiдомий"    REM COMPOSER ""    INDEX 01 00:00:00FILE "09. Алексей Павлов - Поезд.wav" WAVE  TRACK 09 AUDIO    TITLE "Поезд"    PERFORMER "Алексей Павлов"    REM COMPOSER ""    INDEX 01 00:00:00FILE "10. Electric DJ's vs Joor - Armagedon.wav" WAVE  TRACK 10 AUDIO    TITLE "Armagedon"    PERFORMER "Electric DJ's vs Joor"    REM COMPOSER ""    INDEX 01 00:00:00FILE "11. MAX eNeRGy - Jazzy Outro.wav" WAVE  TRACK 11 AUDIO    TITLE "Jazzy Outro"    PERFORMER "MAX eNeRGy"    REM COMPOSER ""    INDEX 01 00:00:00

If you like the topic, please click share to help develop our site.

To download the file disable ad blocking, and reload the page.

disable adblock How to disable ad blocking?

Download by magnet link 353 MB Download Torrent

Login using:

Similar topics

(Drum & Bass) [WEB] Break - Another Way - 2018, FLAC (tracks), lossless
 451 MB   0 | 0   20-Apr-19 19:25   11


   
Current time is: 17-Jul 06:06 :: All times are UTC + 3