---Survival / Survival--- Жанр: Drum & Bass
Носитель: CD
Страна-производитель диска (релиза): UK
Год издания: 2009
Издатель (лейбл): Exit Records
Номер по каталогу: EXIT003CD
Аудиокодек: FLAC (*.flac)
Тип рипа: tracks+.cue
Битрейт аудио: lossless
Продолжительность: 01:13:00
Источник: db9
Наличие сканов в содержимом раздачи: нет---Треклист:
01. Survival - Walk on by [5:35]
02. Survival - Heeding the Sign (Feat. Christina Nicola) [5:44]
03. Survival - Hit You When You're Down (Feat. Sl) [5:36]
04. Survival - Even Now [4:58]
05. Survival - Feelings Gone (Feat. Christina Nicola) [5:49]
06. Survival - Still Don't Know [5:04]
07. Survival - Terrain [6:00]
08. Survival - Ascendancy [1:43]
09. Survival - Seventh Sign [6:02]
10. Survival - Too Little Too Late [6:04]
11. Survival - Burned Out [5:22]
12. Survival - Foreshadow [7:50]
13. Survival - Field of Vision [7:12]

Лог создания рипа

Exact Audio Copy V0.99 prebeta 4 from 23. January 2008
EAC extraction logfile from 7. June 2010, 11:10
Survival / Survival
Used drive : SONY CD-RW CRX230ED Adapter: 1 ID: 1
Read mode : SecureUtilize accurate stream : YesDefeat audio cache : YesMake use of C2 pointers : No
Read offset correction : 6Overread into Lead-In and Lead-Out : NoFill up missing offset samples with silence : YesDelete leading and trailing silent blocks : NoNull samples used in CRC calculations : YesUsed interface : Native Win32 interface for Win NT & 2000Gap handling : Appended to previous track
Used output format : User Defined EncoderSelected bitrate : 1024 kBit/sQuality : HighAdd ID3 tag : NoCommand line compressor : C:\Program Files\FLAC\flac.exeAdditional command line options : -V -8 -T "artist=%a" -T "title=%t" -T "album=%g" -T "date=%y" -T "tracknumber=%n" -T "genre=%m" %s
TOC of the extracted CD
Track | Start | Length | Start sector | End sector --------------------------------------------------------- 1 | 0:00.00 | 5:35.12 | 0 | 25136 2 | 5:35.12 | 5:44.32 | 25137 | 50968 3 | 11:19.44 | 5:36.24 | 50969 | 76192 4 | 16:55.68 | 4:58.08 | 76193 | 98550 5 | 21:54.01 | 5:48.64 | 98551 | 124714 6 | 27:42.65 | 5:04.33 | 124715 | 147547 7 | 32:47.23 | 5:59.59 | 147548 | 174531 8 | 38:47.07 | 1:43.23 | 174532 | 182279 9 | 40:30.30 | 6:01.64 | 182280 | 209418 10 | 46:32.19 | 6:03.68 | 209419 | 236711 11 | 52:36.12 | 5:21.47 | 236712 | 260833 12 | 57:57.59 | 7:49.43 | 260834 | 296051 13 | 65:47.27 | 7:12.23 | 296052 | 328474
Track 1
Filename G:\Music\Sharing\Survival - 2009 - Survival\Survival - 01 - Walk On By.wav
Pre-gap length 0:00:02.00
Peak level 100.0 % Track quality 100.0 % Test CRC B1ACC6C1 Copy CRC B1ACC6C1 Accurately ripped (confidence 3) [1D8A2B3D] Copy OK
Track 2
Filename G:\Music\Sharing\Survival - 2009 - Survival\Survival - 02 - Heeding The Signs Featuring Christina Nicola.wav
Pre-gap length 0:00:02.00
Peak level 94.4 % Track quality 100.0 % Test CRC E142DBCD Copy CRC E142DBCD Accurately ripped (confidence 3) [CD7C6832] Copy OK
Track 3
Filename G:\Music\Sharing\Survival - 2009 - Survival\Survival - 03 - Hit You When You're Down Featuring SL.wav
Pre-gap length 0:00:02.00
Peak level 100.0 % Track quality 100.0 % Test CRC BF4E0322 Copy CRC BF4E0322 Accurately ripped (confidence 3) [060EC548] Copy OK
Track 4
Filename G:\Music\Sharing\Survival - 2009 - Survival\Survival - 04 - Even Now.wav
Pre-gap length 0:00:02.00
Peak level 100.0 % Track quality 100.0 % Test CRC E0C415CF Copy CRC E0C415CF Accurately ripped (confidence 3) [0280C35C] Copy OK
Track 5
Filename G:\Music\Sharing\Survival - 2009 - Survival\Survival - 05 - Feelings Gone Featuring Christina Nicola.wav
Pre-gap length 0:00:02.00
Peak level 100.0 % Track quality 100.0 % Test CRC 9F4E75B6 Copy CRC 9F4E75B6 Accurately ripped (confidence 3) [7E7C8DB8] Copy OK
Track 6
Filename G:\Music\Sharing\Survival - 2009 - Survival\Survival - 06 - Still Don't Know.wav
Pre-gap length 0:00:02.00
Peak level 100.0 % Track quality 100.0 % Test CRC D5CFD217 Copy CRC D5CFD217 Accurately ripped (confidence 3) [BAC9703F] Copy OK
Track 7
Filename G:\Music\Sharing\Survival - 2009 - Survival\Survival - 07 - Terrain.wav
Pre-gap length 0:00:02.00
Peak level 100.0 % Track quality 100.0 % Test CRC 02C51636 Copy CRC 02C51636 Accurately ripped (confidence 3) [1A65BE5B] Copy OK
Track 8
Filename G:\Music\Sharing\Survival - 2009 - Survival\Survival - 08 - Ascendancy.wav
Pre-gap length 0:00:02.00
Peak level 100.0 % Track quality 100.0 % Test CRC A9E0898E Copy CRC A9E0898E Accurately ripped (confidence 3) [506B537E] Copy OK
Track 9
Filename G:\Music\Sharing\Survival - 2009 - Survival\Survival - 09 - Seventh Sign.wav
Pre-gap length 0:00:01.74
Peak level 100.0 % Track quality 100.0 % Test CRC 6D046070 Copy CRC 6D046070 Accurately ripped (confidence 3) [2FA11ECE] Copy OK
Track 10
Filename G:\Music\Sharing\Survival - 2009 - Survival\Survival - 10 - Too Little Too Late.wav
Pre-gap length 0:00:02.00
Peak level 100.0 % Track quality 99.9 % Test CRC 2EEB1C22 Copy CRC 2EEB1C22 Accurately ripped (confidence 3) [0FE96989] Copy OK
Track 11
Filename G:\Music\Sharing\Survival - 2009 - Survival\Survival - 11 - Burned Out.wav
Pre-gap length 0:00:02.00
Peak level 100.0 % Track quality 100.0 % Test CRC A5E79466 Copy CRC A5E79466 Accurately ripped (confidence 3) [DE012690] Copy OK
Track 12
Filename G:\Music\Sharing\Survival - 2009 - Survival\Survival - 12 - Foreshadow.wav
Pre-gap length 0:00:02.00
Peak level 100.0 % Track quality 100.0 % Test CRC A9BB70AD Copy CRC A9BB70AD Accurately ripped (confidence 3) [7893AFFD] Copy OK
Track 13
Filename G:\Music\Sharing\Survival - 2009 - Survival\Survival - 13 - Field Of Vision.wav
Pre-gap length 0:00:02.00
Peak level 100.0 % Track quality 100.0 % Test CRC FC9890D6 Copy CRC FC9890D6 Accurately ripped (confidence 3) [670BEE79] Copy OK
All tracks accurately ripped
No errors occurred
End of status report

Содержание индексной карты (.CUE)

REM GENRE "Drum & Bass"REM DATE 2009REM DISCID CE111B0DREM COMMENT "ExactAudioCopy v0.99pb4"PERFORMER "Survival"TITLE "Survival"FILE "Survival - 01 - Walk On By.wav" WAVE  TRACK 01 AUDIO    TITLE "Walk On By"    PERFORMER "Survival"    INDEX 01 00:00:00  TRACK 02 AUDIO    TITLE "Heeding The Signs Featuring Christina Nicola"    PERFORMER "Survival"    INDEX 00 05:33:12FILE "Survival - 02 - Heeding The Signs Featuring Christina Nicola.wav" WAVE    INDEX 01 00:00:00  TRACK 03 AUDIO    TITLE "Hit You When You're Down Featuring SL"    PERFORMER "Survival"    INDEX 00 05:42:32FILE "Survival - 03 - Hit You When You're Down Featuring SL.wav" WAVE    INDEX 01 00:00:00  TRACK 04 AUDIO    TITLE "Even Now"    PERFORMER "Survival"    INDEX 00 05:34:24FILE "Survival - 04 - Even Now.wav" WAVE    INDEX 01 00:00:00  TRACK 05 AUDIO    TITLE "Feelings Gone Featuring Christina Nicola"    PERFORMER "Survival"    INDEX 00 04:56:08FILE "Survival - 05 - Feelings Gone Featuring Christina Nicola.wav" WAVE    INDEX 01 00:00:00  TRACK 06 AUDIO    TITLE "Still Don't Know"    PERFORMER "Survival"    INDEX 00 05:46:64FILE "Survival - 06 - Still Don't Know.wav" WAVE    INDEX 01 00:00:00  TRACK 07 AUDIO    TITLE "Terrain"    PERFORMER "Survival"    INDEX 00 05:02:33FILE "Survival - 07 - Terrain.wav" WAVE    INDEX 01 00:00:00  TRACK 08 AUDIO    TITLE "Ascendancy"    PERFORMER "Survival"    INDEX 00 05:57:59FILE "Survival - 08 - Ascendancy.wav" WAVE    INDEX 01 00:00:00  TRACK 09 AUDIO    TITLE "Seventh Sign"    PERFORMER "Survival"    INDEX 00 01:41:24FILE "Survival - 09 - Seventh Sign.wav" WAVE    INDEX 01 00:00:00  TRACK 10 AUDIO    TITLE "Too Little Too Late"    PERFORMER "Survival"    INDEX 00 05:59:64FILE "Survival - 10 - Too Little Too Late.wav" WAVE    INDEX 01 00:00:00  TRACK 11 AUDIO    TITLE "Burned Out"    PERFORMER "Survival"    INDEX 00 06:01:68FILE "Survival - 11 - Burned Out.wav" WAVE    INDEX 01 00:00:00  TRACK 12 AUDIO    TITLE "Foreshadow"    PERFORMER "Survival"    INDEX 00 05:19:47FILE "Survival - 12 - Foreshadow.wav" WAVE    INDEX 01 00:00:00  TRACK 13 AUDIO    TITLE "Field Of Vision"    PERFORMER "Survival"    INDEX 00 07:47:43FILE "Survival - 13 - Field Of Vision.wav" WAVE    INDEX 01 00:00:00

Лог проверки качества

-----------------------
DON'T MODIFY THIS FILE
-----------------------
PERFORMER: auCDtect Task Manager, ver. 1.5.1RC2 build 1.5.1.3Copyright (c) 2008-2010 y-soft. All rights reservedhttp://y-soft.org
ANALYZER: auCDtect: CD records authenticity detector, version 0.8.2Copyright (c) 2004 Oleg Berngardt. All rights reserved.Copyright (c) 2004 Alexander Djourik. All rights reserved.
FILE: 13 - Field Of Vision.flac Size: 50179850 Hash: B4DFA006200685E01A169E5D502D124A Accuracy: -m0 Conclusion: CDDA 99% Signature: 978D3D462D4FCD951957651E637EC236F6B5E579FILE: 12 - Foreshadow.flac Size: 51431931 Hash: 4182C022CB74F532D53027D147ABDEAB Accuracy: -m0 Conclusion: CDDA 99% Signature: A60C68D4131327584F1EF77D56FBDBF2392E9D4AFILE: 11 - Burned Out.flac Size: 37249027 Hash: 1F46DE25F54CE69306719C5D4FE135D6 Accuracy: -m0 Conclusion: CDDA 100% Signature: E3D71B1426246F0593069DC1A9AD5368638397AAFILE: 10 - Too Little Too Late.flac Size: 40871522 Hash: D1C152C44B45792B4753BD669E8E3855 Accuracy: -m0 Conclusion: CDDA 100% Signature: D81F0E5C8C25AAB5B0EBD4549BB21897B525C973FILE: 09 - Seventh Sign.flac Size: 43271152 Hash: 3A0780C90F220504A3E71B6C9640D9A9 Accuracy: -m0 Conclusion: CDDA 100% Signature: 3997F9D83858968F868260E7995619257F99C2F4FILE: 08 - Ascendancy.flac Size: 10241925 Hash: D3828286215FCD828B7E20B2A6FBD0E4 Accuracy: -m0 Conclusion: CDDA 100% Signature: 9E553208DF84D81B05F83C34417C286B8F800168FILE: 07 - Terrain.flac Size: 39026717 Hash: 5EA4A26CD988C826A437C4377330220B Accuracy: -m0 Conclusion: CDDA 100% Signature: 5588FD8862AA70D3781FEA67FF37286F9C4147ABFILE: 06 - Still Don't Know.flac Size: 31043870 Hash: DC1A280E8CFF6024B065D89A797D3BDA Accuracy: -m0 Conclusion: CDDA 100% Signature: 0DD463D941CCAED2D6F92DF17D0641EB58F1AB83FILE: 05 - Feelings Gone Feat. Christina Nicola.flac Size: 42385445 Hash: CA5FDB056F538C313FDCE8D680E2E6D9 Accuracy: -m0 Conclusion: CDDA 100% Signature: A99070F086392FD8420175C0291F6102842165DFFILE: 04 - Even Now.flac Size: 34796156 Hash: F6C2ED13906CB5805148B1F17E4F2B96 Accuracy: -m0 Conclusion: MPEG 95% Signature: 8C5CD6090CF8439F6DC11B15A85E00D2ED778D2EFILE: 03 - Hit You When You're Down Feat. SL.flac Size: 42463055 Hash: D0CCE6D63E14231D453778A4C1F1F120 Accuracy: -m0 Conclusion: CDDA 100% Signature: A8DC9BE7DA42CF73B44A2653DC6F6334B8E76CE6FILE: 02 - Heeding The Signs Feat. Christina Nicola.flac Size: 42517979 Hash: 150D7F0B1D240D4253D01E098498047F Accuracy: -m0 Conclusion: CDDA 100% Signature: E3A38050348D39C7AAE2B73888C556337A72C744FILE: 01 - Walk On By.flac Size: 37621611 Hash: E73463F963E0213210FA1CB9130CDDB8 Accuracy: -m0 Conclusion: CDDA 100% Signature: 73640EF2D29B892BFE29833D9FCA24493B3FC886

If you like the topic, please click share to help develop our site.

To download the file disable ad blocking, and reload the page.

disable adblock How to disable ad blocking?

Download by magnet link 480 MB Download Torrent

Login using:



   
Current time is: 20-Jul 11:12 :: All times are UTC + 3