Various Artists - Promised Land: The Fourth Dimension- Жанр: Drum & Bass, Jungle, Intelligent
Год выпуска: 1998
Страна: US
Носитель: CD
Битрейт аудио: lossless
Тип рипа: tracks+.cue
Аудио кодек: FLAC (*.flac)
Продолжительность: 00:02:28:23
Источник (релизер): RED
-:: Discogs ::-

CD1

01. Helen T - Jakes Progress '97 (5:40)
02. Helen T - Within a Dream (4:11)
03. Nookie & Larry Heard - Derelict Love (6:11)
04. Time Signature - Sweet Power (6:22)
05. Helen T - Stay Calm (6:00)
06. Helen T - Polaris (4:44)
07. In Deep - Electro Solution (3:07)
08. Helen T - Showshenk (Slipmaster J Mix) (4:32)
09. Nookie & Larry Heard - You & Me (4:32)
10. Mind 21 - Minds (4:21)
11. Helen T - Sax Tune (5:05)
12. Futurebound feat. Jay Ella Ruth - Where Are? (7:08)
13. Helen T - Earls Dream (Slipmaster J Mix) (4:13)
14. Helen T - Losing (Slipmaster J Mix) (6:14)
15. Parralax - Water Colours (5:26)
-

*.log

Exact Audio Copy V1.0 beta 3 from 29. August 2011
EAC extraction logfile from 25. July 2018, 19:48
Slipmaster J / Promised Land: The Fourth Dimension
Used drive : hp DVDWBD TS-LB23L Adapter: 1 ID: 0
Read mode : SecureUtilize accurate stream : YesDefeat audio cache : YesMake use of C2 pointers : No
Read offset correction : 6Overread into Lead-In and Lead-Out : NoFill up missing offset samples with silence : YesDelete leading and trailing silent blocks : NoNull samples used in CRC calculations : YesUsed interface : Native Win32 interface for Win NT & 2000Gap handling : Appended to previous track
Used output format : User Defined EncoderSelected bitrate : 1024 kBit/sQuality : HighAdd ID3 tag : NoCommand line compressor : C:\Program Files (x86)\Exact Audio Copy\FLAC\FLAC.EXEAdditional command line options : -8 -V -T "ARTIST=%artist%" -T "TITLE=%title%" -T "ALBUM=%albumtitle%" -T "DATE=%year%" -T "TRACKNUMBER=%tracknr%" -T "GENRE=%genre%" -T "PERFORMER=%albuminterpret%" -T "COMPOSER=%composer%" %haslyrics%--tag-from-file=LYRICS="%lyricsfile%"%haslyrics% -T "ALBUMARTIST=%albumartist%" -T "DISCNUMBER=%cdnumber%" -T "TOTALDISCS=%totalcds%" -T "TOTALTRACKS=%numtracks%" -T "COMMENT=%comment%" %source% -o %dest%
TOC of the extracted CD
Track | Start | Length | Start sector | End sector --------------------------------------------------------- 1 | 0:00.00 | 5:39.45 | 0 | 25469 2 | 5:39.45 | 4:11.32 | 25470 | 44326 3 | 9:51.02 | 6:11.10 | 44327 | 72161 4 | 16:02.12 | 6:22.15 | 72162 | 100826 5 | 22:24.27 | 5:59.70 | 100827 | 127821 6 | 28:24.22 | 4:43.53 | 127822 | 149099 7 | 33:08.00 | 3:06.42 | 149100 | 163091 8 | 36:14.42 | 4:31.63 | 163092 | 183479 9 | 40:46.30 | 4:32.37 | 183480 | 203916 10 | 45:18.67 | 4:21.35 | 203917 | 223526 11 | 49:40.27 | 5:04.45 | 223527 | 246371 12 | 54:44.72 | 7:07.60 | 246372 | 278456 13 | 61:52.57 | 4:12.68 | 278457 | 297424 14 | 66:05.50 | 6:13.57 | 297425 | 325456 15 | 72:19.32 | 5:26.05 | 325457 | 349911
Track 1
Filename C:\FLAC\Various - Promised Land The Fourth Dimension (1998) {MSS 0025-2} [CD FLAC]\Disc 1\01 Jakes Progress '97.wav
Pre-gap length 0:00:02.00
Peak level 100.0 % Extraction speed 1.4 X Track quality 99.9 % Test CRC EC160EA7 Copy CRC EC160EA7 Accurately ripped (confidence 2) [10FADC87] (AR v2) Copy OK
Track 2
Filename C:\FLAC\Various - Promised Land The Fourth Dimension (1998) {MSS 0025-2} [CD FLAC]\Disc 1\02 Within a Dream.wav
Pre-gap length 0:00:00.03
Peak level 100.0 % Extraction speed 1.6 X Track quality 100.0 % Test CRC 584F95A9 Copy CRC 584F95A9 Accurately ripped (confidence 2) [0146D2BC] (AR v2) Copy OK
Track 3
Filename C:\FLAC\Various - Promised Land The Fourth Dimension (1998) {MSS 0025-2} [CD FLAC]\Disc 1\03 Derelict Love.wav
Pre-gap length 0:00:00.02
Peak level 100.0 % Extraction speed 1.8 X Track quality 100.0 % Test CRC 15FCD2E8 Copy CRC 15FCD2E8 Accurately ripped (confidence 2) [90A055EA] (AR v2) Copy OK
Track 4
Filename C:\FLAC\Various - Promised Land The Fourth Dimension (1998) {MSS 0025-2} [CD FLAC]\Disc 1\04 Sweet Power.wav
Pre-gap length 0:00:00.02
Peak level 100.0 % Extraction speed 1.3 X Track quality 100.0 % Test CRC A84A5D43 Copy CRC A84A5D43 Accurately ripped (confidence 2) [DCB63790] (AR v2) Copy OK
Track 5
Filename C:\FLAC\Various - Promised Land The Fourth Dimension (1998) {MSS 0025-2} [CD FLAC]\Disc 1\05 Stay Calm.wav
Pre-gap length 0:00:00.02
Peak level 100.0 % Extraction speed 2.4 X Track quality 100.0 % Test CRC DF047EC2 Copy CRC DF047EC2 Accurately ripped (confidence 2) [7B46EB04] (AR v2) Copy OK
Track 6
Filename C:\FLAC\Various - Promised Land The Fourth Dimension (1998) {MSS 0025-2} [CD FLAC]\Disc 1\06 Polaris.wav
Pre-gap length 0:00:00.02
Peak level 93.5 % Extraction speed 2.4 X Track quality 100.0 % Test CRC 0E4A9AA2 Copy CRC 0E4A9AA2 Accurately ripped (confidence 2) [9EAFB630] (AR v2) Copy OK
Track 7
Filename C:\FLAC\Various - Promised Land The Fourth Dimension (1998) {MSS 0025-2} [CD FLAC]\Disc 1\07 Electro Solution.wav
Pre-gap length 0:00:00.03
Peak level 100.0 % Extraction speed 1.9 X Track quality 99.9 % Test CRC 0EF021BB Copy CRC 0EF021BB Accurately ripped (confidence 2) [2743ECFF] (AR v2) Copy OK
Track 8
Filename C:\FLAC\Various - Promised Land The Fourth Dimension (1998) {MSS 0025-2} [CD FLAC]\Disc 1\08 Showshenk (Slipmaster J Mix).wav
Pre-gap length 0:00:00.02
Peak level 100.0 % Extraction speed 2.8 X Track quality 100.0 % Test CRC E392703F Copy CRC E392703F Accurately ripped (confidence 2) [E44B3A3B] (AR v2) Copy OK
Track 9
Filename C:\FLAC\Various - Promised Land The Fourth Dimension (1998) {MSS 0025-2} [CD FLAC]\Disc 1\09 You & Me.wav
Pre-gap length 0:00:00.03
Peak level 100.0 % Extraction speed 2.7 X Track quality 100.0 % Test CRC 5FD55966 Copy CRC 5FD55966 Accurately ripped (confidence 2) [E4404B5E] (AR v2) Copy OK
Track 10
Filename C:\FLAC\Various - Promised Land The Fourth Dimension (1998) {MSS 0025-2} [CD FLAC]\Disc 1\10 Minds.wav
Pre-gap length 0:00:00.02
Peak level 100.0 % Extraction speed 2.8 X Track quality 100.0 % Test CRC C295D481 Copy CRC C295D481 Accurately ripped (confidence 2) [A6FBD1F5] (AR v2) Copy OK
Track 11
Filename C:\FLAC\Various - Promised Land The Fourth Dimension (1998) {MSS 0025-2} [CD FLAC]\Disc 1\11 Sax Tune.wav
Pre-gap length 0:00:00.02
Peak level 100.0 % Extraction speed 3.1 X Track quality 100.0 % Test CRC E124042F Copy CRC E124042F Accurately ripped (confidence 2) [A4D797B1] (AR v2) Copy OK
Track 12
Filename C:\FLAC\Various - Promised Land The Fourth Dimension (1998) {MSS 0025-2} [CD FLAC]\Disc 1\12 Where Are.wav
Pre-gap length 0:00:00.02
Peak level 100.0 % Extraction speed 3.4 X Track quality 100.0 % Test CRC 394FE6A5 Copy CRC 394FE6A5 Accurately ripped (confidence 2) [E20CE95A] (AR v2) Copy OK
Track 13
Filename C:\FLAC\Various - Promised Land The Fourth Dimension (1998) {MSS 0025-2} [CD FLAC]\Disc 1\13 Earls Dream (Slipmaster J Mix).wav
Pre-gap length 0:00:00.02
Peak level 100.0 % Extraction speed 3.1 X Track quality 100.0 % Test CRC 563C2AE4 Copy CRC 563C2AE4 Accurately ripped (confidence 2) [EBD3CC47] (AR v2) Copy OK
Track 14
Filename C:\FLAC\Various - Promised Land The Fourth Dimension (1998) {MSS 0025-2} [CD FLAC]\Disc 1\14 Losing (Slipmaster J Mix).wav
Pre-gap length 0:00:00.03
Peak level 100.0 % Extraction speed 3.3 X Track quality 100.0 % Test CRC 5A268D4E Copy CRC 5A268D4E Accurately ripped (confidence 2) [348516DB] (AR v2) Copy OK
Track 15
Filename C:\FLAC\Various - Promised Land The Fourth Dimension (1998) {MSS 0025-2} [CD FLAC]\Disc 1\15 Water Colours.wav
Pre-gap length 0:00:00.02
Peak level 99.8 % Extraction speed 3.0 X Track quality 100.0 % Test CRC AF8021F5 Copy CRC AF8021F5 Accurately ripped (confidence 2) [258AA0AB] (AR v2) Copy OK
All tracks accurately ripped
No errors occurred
End of status report
---- CUETools DB Plugin V2.1.4
[CTDB TOCID: 8Rf6r4wrRJTku20qKfl1Btui9pU-] foundSubmit result: 8Rf6r4wrRJTku20qKfl1Btui9pU- has been confirmedTrack | CTDB Status 1 | (13/13) Accurately ripped 2 | (13/13) Accurately ripped 3 | (13/13) Accurately ripped 4 | (13/13) Accurately ripped 5 | (13/13) Accurately ripped 6 | (13/13) Accurately ripped 7 | (13/13) Accurately ripped 8 | (13/13) Accurately ripped 9 | (13/13) Accurately ripped 10 | (13/13) Accurately ripped 11 | (13/13) Accurately ripped 12 | (12/13) Accurately ripped 13 | (12/13) Accurately ripped 14 | (13/13) Accurately ripped 15 | (13/13) Accurately ripped
==== Log checksum 974ED9F72102CBCB4BD9FC8EB57EA85E094E87592A83895FE51D76F866E332B5 ====

*.cue

REM GENRE Drum & BassREM DATE 1998REM DISCID E612390FREM COMMENT "ExactAudioCopy v1.0b3"PERFORMER "Various Artists"TITLE "Promised Land: The Fourth Dimension"FILE "01. Helen T - Jakes Progress '97.wav" WAVE  TRACK 01 AUDIO    TITLE "Jakes Progress '97"    PERFORMER "Helen T"    INDEX 01 00:00:00  TRACK 02 AUDIO    TITLE "Within a Dream"    PERFORMER "Helen T"    INDEX 00 05:39:42FILE "02. Helen T - Within a Dream.wav" WAVE    INDEX 01 00:00:00  TRACK 03 AUDIO    TITLE "Derelict Love"    PERFORMER "Nookie & Larry Heard"    INDEX 00 04:11:30FILE "03. Nookie & Larry Heard - Derelict Love.wav" WAVE    INDEX 01 00:00:00  TRACK 04 AUDIO    TITLE "Sweet Power"    PERFORMER "Time Signature"    INDEX 00 06:11:08FILE "04. Time Signature - Sweet Power.wav" WAVE    INDEX 01 00:00:00  TRACK 05 AUDIO    TITLE "Stay Calm"    PERFORMER "Helen T"    INDEX 00 06:22:13FILE "05. Helen T - Stay Calm.wav" WAVE    INDEX 01 00:00:00  TRACK 06 AUDIO    TITLE "Polaris"    PERFORMER "Helen T"    INDEX 00 05:59:68FILE "06. Helen T - Polaris.wav" WAVE    INDEX 01 00:00:00  TRACK 07 AUDIO    TITLE "Electro Solution"    PERFORMER "In Deep"    INDEX 00 04:43:50FILE "07. In Deep - Electro Solution.wav" WAVE    INDEX 01 00:00:00  TRACK 08 AUDIO    TITLE "Showshenk (Slipmaster J Mix)"    PERFORMER "Helen T"    INDEX 00 03:06:40FILE "08. Helen T - Showshenk (Slipmaster J Mix).wav" WAVE    INDEX 01 00:00:00  TRACK 09 AUDIO    TITLE "You & Me"    PERFORMER "Nookie & Larry Heard"    INDEX 00 04:31:60FILE "09. Nookie & Larry Heard - You & Me.wav" WAVE    INDEX 01 00:00:00  TRACK 10 AUDIO    TITLE "Minds"    PERFORMER "Mine 21"    INDEX 00 04:32:35FILE "10. Mind 21 - Minds.wav" WAVE    INDEX 01 00:00:00  TRACK 11 AUDIO    TITLE "Sax Tune"    PERFORMER "Helen T"    INDEX 00 04:21:33FILE "11. Helen T - Sax Tune.wav" WAVE    INDEX 01 00:00:00  TRACK 12 AUDIO    TITLE "Where Are?"    PERFORMER "Futurebound feat. Jay Ella Ruth"    INDEX 00 05:04:43FILE "12. Futurebound feat. Jay Ella Ruth - Where Are.wav" WAVE    INDEX 01 00:00:00  TRACK 13 AUDIO    TITLE "Earls Dream (Slipmaster J Mix)"    PERFORMER "Helen T"    INDEX 00 07:07:58FILE "13. Helen T - Earls Dream (Slipmaster J Mix).wav" WAVE    INDEX 01 00:00:00  TRACK 14 AUDIO    TITLE "Losing (Slipmaster J Mix)"    PERFORMER "Helen T"    INDEX 00 04:12:65FILE "14. Helen T - Losing (Slipmaster J Mix).wav" WAVE    INDEX 01 00:00:00  TRACK 15 AUDIO    TITLE "Water Colours"    PERFORMER "Parallax"    INDEX 00 06:13:55FILE "15. Parralax - Water Colours.wav" WAVE    INDEX 01 00:00:00

*.auCDtect

-----------------------
DON'T MODIFY THIS FILE
-----------------------
PERFORMER: auCDtect Task Manager, ver. 1.6.0 RC1 build 1.6.0.1Copyright (c) 2008-2010 y-soft. All rights reservedhttp://y-soft.org
ANALYZER: auCDtect: CD records authenticity detector, version 0.8.2Copyright (c) 2004 Oleg Berngardt. All rights reserved.Copyright (c) 2004 Alexander Djourik. All rights reserved.
FILE: 01. Helen T - Jakes Progress '97.flac Size: 37236583 Hash: 1D5DDF8CDCD8C82FB1D6B6AEDC04ADDC Accuracy: -m0 Conclusion: CDDA 100% Signature: A5F6F741A0E4AB9E5B59233AEC94829BCE56CD17FILE: 02. Helen T - Within a Dream.flac Size: 31153637 Hash: 0602DFC717C8A5B5F6D27D983E6193CD Accuracy: -m0 Conclusion: CDDA 100% Signature: DE766B5D60FEBA7029B80E2FA130E3BB26B776F4FILE: 03. Nookie & Larry Heard - Derelict Love.flac Size: 42684624 Hash: F820C47652683BD3951854783F00DCDD Accuracy: -m0 Conclusion: CDDA 100% Signature: 00847F7035869275E92A2B9709F88ECB5E40FC42FILE: 04. Time Signature - Sweet Power.flac Size: 41926682 Hash: A0D21A3F28EFC0919B5B3B86AA5C008C Accuracy: -m0 Conclusion: CDDA 100% Signature: E8A7A635D31B4069AB95BC373CBA9521078E69E9FILE: 05. Helen T - Stay Calm.flac Size: 42007651 Hash: 9A195ED8DC62157A6B95949F581391B5 Accuracy: -m0 Conclusion: CDDA 100% Signature: FEEAB95803B21A2B9C367B25A78D751127D1EFECFILE: 06. Helen T - Polaris.flac Size: 32585317 Hash: 2BF1420B340941A4B1160205583E237C Accuracy: -m0 Conclusion: CDDA 100% Signature: 24EF494B35FAFE2B4AF4B5F89ACFC31048753E31FILE: 07. In Deep - Electro Solution.flac Size: 20132529 Hash: 41BBAC1FC5A10BFB929907491D05F695 Accuracy: -m0 Conclusion: CDDA 100% Signature: 82803FC8B8806575DA59009AAF0C6B7390C83E48FILE: 08. Helen T - Showshenk (Slipmaster J Mix).flac Size: 34241107 Hash: F22339FFFA2DC821041F334F1C757132 Accuracy: -m0 Conclusion: CDDA 100% Signature: C87FCAECAF70CA8801CE6C640C751FDF9420DD0BFILE: 09. Nookie & Larry Heard - You & Me.flac Size: 33072704 Hash: E4D9057164B0357C8388AFF3B4E18FE6 Accuracy: -m0 Conclusion: CDDA 99% Signature: 2BA1B4BB03F6F93EFC05382648778825EC5E4C14FILE: 10. Mind 21 - Minds.flac Size: 27856992 Hash: 72C80ED7F4AEB26638D0C6DE31DE82D4 Accuracy: -m0 Conclusion: CDDA 100% Signature: AC7F253C148206CF566645A680AA05F20B616AE6FILE: 11. Helen T - Sax Tune.flac Size: 36794139 Hash: B72724F698493DFA33A3028A756F9998 Accuracy: -m0 Conclusion: CDDA 100% Signature: A0AA509DC1AABEC010A391677A31A64A6AC545A1FILE: 12. Futurebound feat. Jay Ella Ruth - Where Are.flac Size: 52609544 Hash: E09BC82C8CDFE32BAC01C4CC286F6CB1 Accuracy: -m0 Conclusion: CDDA 100% Signature: E0DF689A7B5762981D0B20CFDD150E121B5F7A44FILE: 13. Helen T - Earls Dream (Slipmaster J Mix).flac Size: 27692855 Hash: B37F3C4C8DEDE8E8C398708F19BA0217 Accuracy: -m0 Conclusion: CDDA 100% Signature: EFE662A3C4B43AD3421E7581644808DC5DFD5E78FILE: 14. Helen T - Losing (Slipmaster J Mix).flac Size: 46028988 Hash: F29F8B94B209AF75912402C35607C3C7 Accuracy: -m0 Conclusion: CDDA 100% Signature: 5B729FD5E0EEB99B7E19AECA6E486E8826160D75FILE: 15. Parralax - Water Colours.flac Size: 37933403 Hash: C539D1C658E4AD26C6F0823A15DE013F Accuracy: -m0 Conclusion: CDDA 100% Signature: D54F2F2E7E2F551062C2DA6C5E9854BE7D909B68

*.accurip

[CUETools log; Date: 28.04.2019 21:38:09; Version: 2.1.6][CTDB TOCID: 8Rf6r4wrRJTku20qKfl1Btui9pU-] found.Track | CTDB Status  1   | (16/17) Accurately ripped  2   | (17/17) Accurately ripped  3   | (17/17) Accurately ripped  4   | (16/17) Accurately ripped  5   | (17/17) Accurately ripped  6   | (17/17) Accurately ripped  7   | (17/17) Accurately ripped  8   | (17/17) Accurately ripped  9   | (17/17) Accurately ripped 10   | (17/17) Accurately ripped 11   | (17/17) Accurately ripped 12   | (16/17) Accurately ripped 13   | (16/17) Accurately ripped 14   | (17/17) Accurately ripped 15   | (17/17) Accurately ripped[AccurateRip ID: 002a97b3-01e01312-e612390f] found.Track   [  CRC   |   V2   ] Status 01     [6a329f67|10fadc87] (03+02/14) Accurately ripped 02     [1b9cb47c|0146d2bc] (03+02/14) Accurately ripped 03     [a0934da0|90a055ea] (03+02/15) Accurately ripped 04     [832cae7b|dcb63790] (03+02/14) Accurately ripped 05     [4272ae67|7b46eb04] (03+02/15) Accurately ripped 06     [b7fd6f41|9eafb630] (03+02/14) Accurately ripped 07     [fd0e1ecd|2743ecff] (03+02/14) Accurately ripped 08     [9f91efb3|e44b3a3b] (03+02/15) Accurately ripped 09     [3605160f|e4404b5e] (03+02/14) Accurately ripped 10     [3f636429|a6fbd1f5] (03+02/15) Accurately ripped 11     [2ba2be09|a4d797b1] (03+02/15) Accurately ripped 12     [5138046e|e20ce95a] (03+02/14) Accurately ripped 13     [f19e2f58|ebd3cc47] (03+02/13) Accurately ripped 14     [00297f56|348516db] (03+02/14) Accurately ripped 15     [3e82afa7|258aa0ab] (03+02/14) Accurately rippedOffsetted by 681: 01     [1075ced5] (05/14) Accurately ripped 02     [a162559f] (05/14) Accurately ripped 03     [8bd4cce3] (05/15) Accurately ripped 04     [a6047756] (04/14) Accurately ripped 05     [9d953fa6] (05/15) Accurately ripped 06     [9d212847] (05/14) Accurately ripped 07     [354af03d] (05/14) Accurately ripped 08     [0f5779cf] (05/15) Accurately ripped 09     [3b34e050] (05/14) Accurately ripped 10     [12acd25f] (05/15) Accurately ripped 11     [8443d2ff] (05/15) Accurately ripped 12     [4ada557e] (04/14) Accurately ripped 13     [1a79982d] (04/13) Accurately ripped 14     [c939f72a] (05/14) Accurately ripped 15     [2fa06b9d] (05/14) Accurately ripped
Track Peak [ CRC32 ] [W/O NULL] [ LOG ] -- 100,0 [1DC925DD] [1CBC770D] 01 100,0 [EC160EA7] [1BE59168] CRC32 02 100,0 [584F95A9] [A5264F57] CRC32 03 100,0 [15FCD2E8] [DA0A0BBD] CRC32 04 100,0 [A84A5D43] [55AF0B47] CRC32 05 100,0 [DF047EC2] [7A11ABF1] CRC32 06 93,5 [0E4A9AA2] [32AB3444] CRC32 07 100,0 [0EF021BB] [8CC002BD] CRC32 08 100,0 [E392703F] [48F294ED] CRC32 09 100,0 [5FD55966] [2C072FD6] CRC32 10 100,0 [C295D481] [78846785] CRC32 11 100,0 [E124042F] [73BF6C3D] CRC32 12 100,0 [394FE6A5] [120C4DD4] CRC32 13 100,0 [563C2AE4] [DC4DF558] CRC32 14 100,0 [5A268D4E] [171689B4] CRC32 15 99,8 [AF8021F5] [2F1A3E0F] CRC32

CD2

01. The Collektive - Ambient Nature (7:20)
02. N-Jay - Revibe (5:15)
03. Helen T - Jakes Progress '97 (6:35)
04. Fokus - Jazzed Out (7:14)
05. Helen T - Losing (Slipmaster J Mix) (7:49)
06. Drawback Hill - Chocolate Sushi (8:34)
07. Addiction & Helen T - Jazz U Like It (6:39)
08. Personèlle - Rebound (Nookie Mix) (6:18)
09. Helen T - Stay Calm (7:04)
10. Universal Traveller - Midnite (7:49)
-

*.log

Exact Audio Copy V1.0 beta 3 from 29. August 2011
EAC extraction logfile from 25. July 2018, 21:22
- / Promised Land: The Fourth Dimension
Used drive : hp DVDWBD TS-LB23L Adapter: 1 ID: 0
Read mode : SecureUtilize accurate stream : YesDefeat audio cache : YesMake use of C2 pointers : No
Read offset correction : 6Overread into Lead-In and Lead-Out : NoFill up missing offset samples with silence : YesDelete leading and trailing silent blocks : NoNull samples used in CRC calculations : YesUsed interface : Native Win32 interface for Win NT & 2000Gap handling : Appended to previous track
Used output format : User Defined EncoderSelected bitrate : 1024 kBit/sQuality : HighAdd ID3 tag : NoCommand line compressor : C:\Program Files (x86)\Exact Audio Copy\FLAC\FLAC.EXEAdditional command line options : -8 -V -T "ARTIST=%artist%" -T "TITLE=%title%" -T "ALBUM=%albumtitle%" -T "DATE=%year%" -T "TRACKNUMBER=%tracknr%" -T "GENRE=%genre%" -T "PERFORMER=%albuminterpret%" -T "COMPOSER=%composer%" %haslyrics%--tag-from-file=LYRICS="%lyricsfile%"%haslyrics% -T "ALBUMARTIST=%albumartist%" -T "DISCNUMBER=%cdnumber%" -T "TOTALDISCS=%totalcds%" -T "TOTALTRACKS=%numtracks%" -T "COMMENT=%comment%" %source% -o %dest%
TOC of the extracted CD
Track | Start | Length | Start sector | End sector --------------------------------------------------------- 1 | 0:00.00 | 7:19.70 | 0 | 32994 2 | 7:19.70 | 5:15.25 | 32995 | 56644 3 | 12:35.20 | 6:35.27 | 56645 | 86296 4 | 19:10.47 | 7:13.70 | 86297 | 118841 5 | 26:24.42 | 7:48.63 | 118842 | 154004 6 | 34:13.30 | 8:34.07 | 154005 | 192561 7 | 42:47.37 | 6:38.68 | 192562 | 222479 8 | 49:26.30 | 6:17.55 | 222480 | 250809 9 | 55:44.10 | 7:04.25 | 250810 | 282634 10 | 62:48.35 | 7:49.07 | 282635 | 317816
Track 1
Filename C:\FLAC\Various - Promised Land The Fourth Dimension (1998) {MSS 0025-2} [CD FLAC]\Disc 2\01 Ambient Nature.wav
Pre-gap length 0:00:02.00
Peak level 100.0 % Extraction speed 1.6 X Track quality 100.0 % Test CRC B01F806F Copy CRC B01F806F Accurately ripped (confidence 2) [E7D03930] (AR v2) Copy OK
Track 2
Filename C:\FLAC\Various - Promised Land The Fourth Dimension (1998) {MSS 0025-2} [CD FLAC]\Disc 2\02 Revibe.wav
Pre-gap length 0:00:01.20
Peak level 100.0 % Extraction speed 1.6 X Track quality 100.0 % Test CRC AA04D3B7 Copy CRC AA04D3B7 Accurately ripped (confidence 2) [8571B2E2] (AR v2) Copy OK
Track 3
Filename C:\FLAC\Various - Promised Land The Fourth Dimension (1998) {MSS 0025-2} [CD FLAC]\Disc 2\03 Jakes Progress '97.wav
Pre-gap length 0:00:01.03
Peak level 100.0 % Extraction speed 1.9 X Track quality 100.0 % Test CRC 0B4BA938 Copy CRC 0B4BA938 Accurately ripped (confidence 2) [EFA6B505] (AR v2) Copy OK
Track 4
Filename C:\FLAC\Various - Promised Land The Fourth Dimension (1998) {MSS 0025-2} [CD FLAC]\Disc 2\04 Jazzed Out.wav
Pre-gap length 0:00:01.10
Peak level 100.0 % Extraction speed 1.9 X Track quality 99.9 % Test CRC C139985D Copy CRC C139985D Accurately ripped (confidence 2) [EAE03809] (AR v2) Copy OK
Track 5
Filename C:\FLAC\Various - Promised Land The Fourth Dimension (1998) {MSS 0025-2} [CD FLAC]\Disc 2\05 Losing (Slipmaster J Mix).wav
Pre-gap length 0:00:00.72
Peak level 100.0 % Extraction speed 2.3 X Track quality 100.0 % Test CRC DCA318D3 Copy CRC DCA318D3 Accurately ripped (confidence 2) [03CB0E73] (AR v2) Copy OK
Track 6
Filename C:\FLAC\Various - Promised Land The Fourth Dimension (1998) {MSS 0025-2} [CD FLAC]\Disc 2\06 Chocolate Sushi.wav
Pre-gap length 0:00:01.08
Peak level 96.6 % Extraction speed 2.5 X Track quality 100.0 % Test CRC 97D4F6B7 Copy CRC 97D4F6B7 Accurately ripped (confidence 2) [DA978740] (AR v2) Copy OK
Track 7
Filename C:\FLAC\Various - Promised Land The Fourth Dimension (1998) {MSS 0025-2} [CD FLAC]\Disc 2\07 Jazz U Like It.wav
Pre-gap length 0:00:01.20
Peak level 100.0 % Extraction speed 2.6 X Track quality 100.0 % Test CRC C71F395E Copy CRC C71F395E Accurately ripped (confidence 2) [22CBCB54] (AR v2) Copy OK
Track 8
Filename C:\FLAC\Various - Promised Land The Fourth Dimension (1998) {MSS 0025-2} [CD FLAC]\Disc 2\08 Rebound (Nookie Mix).wav
Pre-gap length 0:00:01.10
Peak level 100.0 % Extraction speed 2.9 X Track quality 100.0 % Test CRC EE74F41E Copy CRC EE74F41E Accurately ripped (confidence 2) [349014EB] (AR v2) Copy OK
Track 9
Filename C:\FLAC\Various - Promised Land The Fourth Dimension (1998) {MSS 0025-2} [CD FLAC]\Disc 2\09 Stay Calm.wav
Pre-gap length 0:00:01.10
Peak level 100.0 % Extraction speed 2.9 X Track quality 100.0 % Test CRC C5B38DD9 Copy CRC C5B38DD9 Accurately ripped (confidence 2) [84A7418F] (AR v2) Copy OK
Track 10
Filename C:\FLAC\Various - Promised Land The Fourth Dimension (1998) {MSS 0025-2} [CD FLAC]\Disc 2\10 Midnite.wav
Pre-gap length 0:00:01.18
Peak level 100.0 % Extraction speed 3.1 X Track quality 99.9 % Test CRC 72479BF4 Copy CRC 72479BF4 Accurately ripped (confidence 2) [59B527DC] (AR v2) Copy OK
All tracks accurately ripped
No errors occurred
End of status report
---- CUETools DB Plugin V2.1.4
[CTDB TOCID: Bquh5yjgidMPLPL3OS8pnmCQjIE-] foundSubmit result: Bquh5yjgidMPLPL3OS8pnmCQjIE- has been confirmedTrack | CTDB Status 1 | (12/12) Accurately ripped 2 | (11/12) Accurately ripped 3 | (12/12) Accurately ripped 4 | (12/12) Accurately ripped 5 | (12/12) Accurately ripped 6 | (12/12) Accurately ripped 7 | (12/12) Accurately ripped 8 | (12/12) Accurately ripped 9 | (11/12) Accurately ripped 10 | (10/12) Accurately ripped
==== Log checksum B4E9B7C17CB84BF9B8325940C5217FA4401D455A1EB5AB6AC058E57834FCA1DE ====

*.cue

REM GENRE Drum & BassREM DATE 1998REM DISCID 97108D0AREM COMMENT "ExactAudioCopy v1.0b3"PERFORMER "Various Artists"TITLE "Promised Land: The Fourth Dimension"FILE "01. The Collektive - Ambient Nature.wav" WAVE  TRACK 01 AUDIO    TITLE "Ambient Nature"    PERFORMER "The Collektive"    INDEX 01 00:00:00  TRACK 02 AUDIO    TITLE "Revibe"    PERFORMER "N-Jay"    INDEX 00 07:18:50FILE "02. N-Jay - Revibe.wav" WAVE    INDEX 01 00:00:00  TRACK 03 AUDIO    TITLE "Jakes Progress '97"    PERFORMER "Helen T"    INDEX 00 05:14:22FILE "03. Helen T - Jakes Progress '97.wav" WAVE    INDEX 01 00:00:00  TRACK 04 AUDIO    TITLE "Jazzed Out"    PERFORMER "Fokus"    INDEX 00 06:34:17FILE "04. Fokus - Jazzed Out.wav" WAVE    INDEX 01 00:00:00  TRACK 05 AUDIO    TITLE "Losing (Slipmaster J Mix)"    PERFORMER "Helen T"    INDEX 00 07:12:73FILE "05. Helen T - Losing (Slipmaster J Mix).wav" WAVE    INDEX 01 00:00:00  TRACK 06 AUDIO    TITLE "Chocolate Sushi"    PERFORMER "Drawback Hill"    INDEX 00 07:47:55FILE "06. Drawback Hill - Chocolate Sushi.wav" WAVE    INDEX 01 00:00:00  TRACK 07 AUDIO    TITLE "Jazz U Like It"    PERFORMER "Addiction & Helen T"    INDEX 00 08:32:62FILE "07. Addiction & Helen T - Jazz U Like It.wav" WAVE    INDEX 01 00:00:00  TRACK 08 AUDIO    TITLE "Rebound (Nookie Mix)"    PERFORMER "PersonР С‘lle"    INDEX 00 06:37:58FILE "08. PersonР elle - Rebound (Nookie Mix).wav" WAVE    INDEX 01 00:00:00  TRACK 09 AUDIO    TITLE "Stay Calm"    PERFORMER "Helen T"    INDEX 00 06:16:45FILE "09. Helen T - Stay Calm.wav" WAVE    INDEX 01 00:00:00  TRACK 10 AUDIO    TITLE "Midnite"    PERFORMER "Universal Traveller"    INDEX 00 07:03:07FILE "10. Universal Traveller - Midnite.wav" WAVE    INDEX 01 00:00:00

*.auCDtect

-----------------------
DON'T MODIFY THIS FILE
-----------------------
PERFORMER: auCDtect Task Manager, ver. 1.6.0 RC1 build 1.6.0.1Copyright (c) 2008-2010 y-soft. All rights reservedhttp://y-soft.org
ANALYZER: auCDtect: CD records authenticity detector, version 0.8.2Copyright (c) 2004 Oleg Berngardt. All rights reserved.Copyright (c) 2004 Alexander Djourik. All rights reserved.
FILE: 01. The Collektive - Ambient Nature.flac Size: 51223666 Hash: 554A31E74BD74B42669CC2E3C6916833 Accuracy: -m0 Conclusion: CDDA 100% Signature: D1A1FB22C7E98B9DA09A76B8293FBD3CEBBCF841FILE: 02. N-Jay - Revibe.flac Size: 37572153 Hash: 8A0BFFAC0AD11CA47AA703B6039A5E51 Accuracy: -m0 Conclusion: CDDA 100% Signature: 1855510514C5D7AFF2FFF0697B0CCBE4BF36D09EFILE: 03. Helen T - Jakes Progress '97.flac Size: 42408074 Hash: 40360B48BC82915F35632CB470729A85 Accuracy: -m0 Conclusion: CDDA 100% Signature: 12FE932F6E05AABEA7EE0A3362D4B66C50A9D711FILE: 04. Fokus - Jazzed Out.flac Size: 42922104 Hash: 6D2062AC36984B8DB3724A734CAFD29B Accuracy: -m0 Conclusion: CDDA 100% Signature: E8880D8783F171619F8B9B455805968CEE03B5F0FILE: 05. Helen T - Losing (Slipmaster J Mix).flac Size: 56143151 Hash: 7898743B8DB8C88A5953E02B3D6D7770 Accuracy: -m0 Conclusion: CDDA 100% Signature: F94D95A53F15F454B7617E78B686BCB794D8279CFILE: 06. Drawback Hill - Chocolate Sushi.flac Size: 61876150 Hash: EDDE51D53F47555713D3F9984C32FBBE Accuracy: -m0 Conclusion: CDDA 100% Signature: E10D175D63EDC9A3702079EAAEC09743C2F5EC88FILE: 07. Addiction & Helen T - Jazz U Like It.flac Size: 47520233 Hash: A6107D7993F97E80B71730057A10B806 Accuracy: -m0 Conclusion: CDDA 100% Signature: 3223D131F7E7DB934B94F3AF2C347A1E9D5F21B1FILE: 08. Personelle - Rebound (Nookie Mix).flac Size: 46534639 Hash: 22166071E883E9334A79089BBFF60F55 Accuracy: -m0 Conclusion: CDDA 100% Signature: C95AB770452F90438F405BFD24058F0D8E890C8DFILE: 09. Helen T - Stay Calm.flac Size: 48880514 Hash: C07D157511AF89D99BF4F1176C8ACB56 Accuracy: -m0 Conclusion: CDDA 100% Signature: 2114E04061DD707F13A42295DDC0161BE44E4382FILE: 10. Universal Traveller - Midnite.flac Size: 56984976 Hash: 1405D2D624625F9B305EB95E679FB910 Accuracy: -m0 Conclusion: CDDA 100% Signature: 852A11807E87BF84EF2D77410807D0594990B7BC

*.accurip

[CUETools log; Date: 28.04.2019 21:50:20; Version: 2.1.6][CTDB TOCID: Bquh5yjgidMPLPL3OS8pnmCQjIE-] found.Track | CTDB Status  1   | (18/18) Accurately ripped  2   | (17/18) Accurately ripped  3   | (18/18) Accurately ripped  4   | (18/18) Accurately ripped  5   | (18/18) Accurately ripped  6   | (18/18) Accurately ripped  7   | (18/18) Accurately ripped  8   | (18/18) Accurately ripped  9   | (17/18) Accurately ripped 10   | (15/18) Accurately ripped[AccurateRip ID: 001a2b90-00d2aca3-97108d0a] found.Track   [  CRC   |   V2   ] Status 01     [7ea9f722|e7d03930] (03+02/14) Accurately ripped 02     [78e1e924|8571b2e2] (03+02/14) Accurately ripped 03     [9e3b79d0|efa6b505] (03+02/14) Accurately ripped 04     [1975cb45|eae03809] (03+02/13) Accurately ripped 05     [d76e33b0|03cb0e73] (03+02/14) Accurately ripped 06     [a6bfb80e|da978740] (03+02/13) Accurately ripped 07     [7b5edb93|22cbcb54] (03+02/14) Accurately ripped 08     [8d4ce5f5|349014eb] (03+02/14) Accurately ripped 09     [448c82a4|84a7418f] (03+02/14) Accurately ripped 10     [f9a0acf6|59b527dc] (03+02/14) Accurately rippedOffsetted by 681: 01     [aa3c3837] (05/14) Accurately ripped 02     [e60bcc4c] (05/14) Accurately ripped 03     [92313ad2] (05/14) Accurately ripped 04     [773b9015] (04/13) Accurately ripped 05     [3984edb2] (04/14) Accurately ripped 06     [c8ee1672] (04/13) Accurately ripped 07     [c8b02d76] (05/14) Accurately ripped 08     [dc205251] (05/14) Accurately ripped 09     [86551bb0] (05/14) Accurately ripped 10     [30ec38c7] (05/14) Accurately ripped
Track Peak [ CRC32 ] [W/O NULL] [ LOG ] -- 100,0 [D3183059] [3EB11723] 01 100,0 [B01F806F] [E5B1481D] CRC32 02 100,0 [AA04D3B7] [3F34FDBD] CRC32 03 100,0 [0B4BA938] [A98BEA4D] CRC32 04 100,0 [C139985D] [5D2CD663] CRC32 05 100,0 [DCA318D3] [8601F2FF] CRC32 06 96,6 [97D4F6B7] [85B82853] CRC32 07 100,0 [C71F395E] [564D0217] CRC32 08 100,0 [EE74F41E] [94792821] CRC32 09 100,0 [C5B38DD9] [3444DD60] CRC32 10 100,0 [72479BF4] [09A55339] CRC32

If you like the topic, please click share to help develop our site.

To download the file disable ad blocking, and reload the page.

disable adblock How to disable ad blocking?

Download by magnet link 988 MB Download Torrent

Login using:

Similar topics

VA - Sublime Drum & Bass Vol.13 (2018) MP3
 285 MB   6 | 0   17-Nov-18 18:30   32
VA - Most Wanted Drum & Bass 2018 (2018) MP3
 396 MB   5 | 0   02-Jul-18 18:30   42


   
Current time is: 20-Jul 10:17 :: All times are UTC + 3