Amirtha Kidambi & Elder Ones | Holy Science
.
Страна коллектива: United States (Brooklyn, NY)
Жанры: Avant-Garde Jazz, Vocal Jazz, Spiritual Jazz
Издатель: Northern Spy Records (USA)
Номер по каталогу: NS 085
Источник: orpheus.network
Год издания: 2016
Аудиокодек: FLAC (*.flac)
Тип рипа: tracks+.cue
Формат: Album
Носитель: CD
Время звучания: 01:04:04
Отсутствие сканов в содержимом раздачи: да
.
ТРЕКЛИСТ:
01. Sathya Yuga [13:20]
02. Treta Yuga [20:32]
03. Dvapara Yuga (for Eric Garner) [12:41]
04. Kali Yuga [17:33]

????

eac

Exact Audio Copy V1.3 from 2. September 2016
EAC extraction logfile from 20. February 2017, 13:33
Elder Ones / Holy Science
Used drive : PLDS DVD-RW DS8A9SH Adapter: 1 ID: 0
Read mode : SecureUtilize accurate stream : YesDefeat audio cache : YesMake use of C2 pointers : No
Read offset correction : 6Overread into Lead-In and Lead-Out : NoFill up missing offset samples with silence : YesDelete leading and trailing silent blocks : NoNull samples used in CRC calculations : YesUsed interface : Native Win32 interface for Win NT & 2000Gap handling : Appended to previous track
Used output format : User Defined EncoderSelected bitrate : 128 kBit/sQuality : HighAdd ID3 tag : NoCommand line compressor : C:\Program Files (x86)\Exact Audio Copy\Flac\flac.exeAdditional command line options : -8 -V -T "ARTIST=%artist%" -T "TITLE=%title%" -T "ALBUM=%albumtitle%" -T "DATE=%year%" -T "TRACKNUMBER=%tracknr%" -T "GENRE=%genre%" -T "PERFORMER=%albuminterpret%" -T "COMPOSER=%composer%" %haslyrics%--tag-from-file=LYRICS="%lyricsfile%"%haslyrics% -T "ALBUMARTIST=%albumartist%" -T "DISCNUMBER=%cdnumber%" -T "TOTALDISCS=%totalcds%" -T "TOTALTRACKS=%numtracks%" -T "COMMENT=%comment%" %source% -o %dest%
TOC of the extracted CD
Track | Start | Length | Start sector | End sector --------------------------------------------------------- 1 | 0:00.00 | 13:19.17 | 0 | 59941 2 | 13:19.17 | 20:31.57 | 59942 | 152323 3 | 33:50.74 | 12:40.33 | 152324 | 209356 4 | 46:31.32 | 17:32.29 | 209357 | 288285
Track 1
Filename C:\#EAC Rips\01 Sathya-Yuga.wav
Pre-gap length 0:00:02.00
Peak level 94.4 % Extraction speed 2.2 X Track quality 100.0 % Test CRC 499C7CB6 Copy CRC 499C7CB6 Track not present in AccurateRip database Copy OK
Track 2
Filename C:\#EAC Rips\02 Treta-Yuga.wav
Pre-gap length 0:00:03.68
Peak level 94.4 % Extraction speed 3.0 X Track quality 100.0 % Test CRC 360415DF Copy CRC 360415DF Track not present in AccurateRip database Copy OK
Track 3
Filename C:\#EAC Rips\03 Dvapara-Yuga (For Eric Garner).wav
Pre-gap length 0:00:03.00
Peak level 94.4 % Extraction speed 3.5 X Track quality 100.0 % Test CRC 4F4F54FC Copy CRC 4F4F54FC Track not present in AccurateRip database Copy OK
Track 4
Filename C:\#EAC Rips\04 Kali-Yuga.wav
Pre-gap length 0:00:05.42
Peak level 94.4 % Extraction speed 4.0 X Track quality 100.0 % Test CRC 5B65999B Copy CRC 5B65999B Track not present in AccurateRip database Copy OK
None of the tracks are present in the AccurateRip database
No errors occurred
End of status report
---- CUETools DB Plugin V2.1.6
[CTDB TOCID: VOOEQXqW67xp9_zxOeyoKEA03.s-] disk not present in databaseSubmit result: VOOEQXqW67xp9_zxOeyoKEA03.s- has been uploaded
==== Log checksum 6A311FA43ECED92FC6A5200878308E23317B6FB33A63C22ED839EC6014230D8E ====

.cue

REM GENRE "Avant-Garde Jazz"REM DATE 2016REM DISCID 270F0304REM COMMENT "ExactAudioCopy v1.3"PERFORMER "Amirtha Kidambi & Elder Ones"TITLE "Holy Science"FILE "01. Sathya Yuga.wav" WAVE  TRACK 01 AUDIO    TITLE "Sathya Yuga"    PERFORMER "Amirtha Kidambi & Elder Ones"    INDEX 01 00:00:00  TRACK 02 AUDIO    TITLE "Treta Yuga"    PERFORMER "Amirtha Kidambi & Elder Ones"    INDEX 00 13:15:41FILE "02. Treta Yuga.wav" WAVE    INDEX 01 00:00:00  TRACK 03 AUDIO    TITLE "Dvapara Yuga (for Eric Garner)"    PERFORMER "Amirtha Kidambi & Elder Ones"    INDEX 00 20:28:57FILE "03. Dvapara Yuga (for Eric Garner).wav" WAVE    INDEX 01 00:00:00  TRACK 04 AUDIO    TITLE "Kali Yuga"    PERFORMER "Amirtha Kidambi & Elder Ones"    INDEX 00 12:35:01FILE "04. Kali Yuga.wav" WAVE    INDEX 01 00:00:00

If you like the topic, please click share to help develop our site.

To download the file disable ad blocking, and reload the page.

disable adblock How to disable ad blocking?

Download by magnet link 338 MB Download Torrent

Login using:

Similar topics



   
Current time is: 20-Jul 10:14 :: All times are UTC + 3