Matana Roberts | Coin Coin Chapter One: Gens de couleur libres
.
Matana Roberts (born): 1978 | United States (Chicago, IL)
Жанры: Avant-Garde Jazz, Spiritual Jazz, Free Jazz, Spoken Word
Издатель: Constellation (Canada)
Номер по каталогу: CST079-2
Источник: redacted.ch
Год издания: 2011
Аудиокодек: FLAC (*.flac)
Тип рипа: tracks+.cue
Формат: Album
Носитель: CD
Время звучания: 01:01:14
Отсутствие сканов в содержимом раздачи: да
.
ТРЕКЛИСТ:
01. Rise [07:28]
02. Pov Piti [07:41]
03. Song for Eulalie [08:27]
04. Kersaia [07:34]
05. Libation for Mr. Brown: Bid Em In... [09:48]
06. Lulla / Bye [05:54]
07. I Am [10:06]
08. How Much Would You Cost? [04:19]

????

eac

Exact Audio Copy V1.0 beta 3 from 29. August 2011
EAC extraction logfile from 13. October 2012, 18:23
Matana Roberts / COIN COIN Chapter One: Gens de couleur libres
Used drive : ASUS DRW-24B3ST Adapter: 2 ID: 1
Read mode : SecureUtilize accurate stream : YesDefeat audio cache : YesMake use of C2 pointers : No
Read offset correction : 6Overread into Lead-In and Lead-Out : NoFill up missing offset samples with silence : YesDelete leading and trailing silent blocks : NoNull samples used in CRC calculations : YesUsed interface : Native Win32 interface for Win NT & 2000Gap handling : Appended to previous track
Used output format : User Defined EncoderSelected bitrate : 1024 kBit/sQuality : HighAdd ID3 tag : NoCommand line compressor : C:\Program Files (x86)\Exact Audio Copy\Flac\flac.exeAdditional command line options : -8 -V -T "ARTIST=%artist%" -T "TITLE=%title%" -T "ALBUM=%albumtitle%" -T "DATE=%year%" -T "TRACKNUMBER=%tracknr%" -T "GENRE=%genre%" -T "PERFORMER=%albuminterpret%" -T "COMPOSER=%composer%" %haslyrics%-tag-from-file=LYRICS="%lyricsfile%"%haslyrics% -T "ALBUMARTIST=%albumartist%" -T "DISCNUMBER=%cdnumber%" -T "TOTALDISCS=%totalcds%" -T "TOTALTRACKS=%numtracks%" -T "COMMENT=%comment%" %source% -o %dest%
TOC of the extracted CD
Track | Start | Length | Start sector | End sector --------------------------------------------------------- 1 | 0:00.00 | 7:27.17 | 0 | 33541 2 | 7:27.17 | 7:40.55 | 33542 | 68096 3 | 15:07.72 | 8:26.09 | 68097 | 106055 4 | 23:34.06 | 7:33.02 | 106056 | 140032 5 | 31:07.08 | 9:47.73 | 140033 | 184130 6 | 40:55.06 | 5:53.72 | 184131 | 210677 7 | 46:49.03 | 10:05.24 | 210678 | 256076 8 | 56:54.27 | 4:18.63 | 256077 | 275489
Track 1
Filename C:\EACrips\01 rise.wav
Pre-gap length 0:00:02.00
Peak level 98.8 % Extraction speed 3.7 X Track quality 100.0 % Test CRC A4F32CC6 Copy CRC A4F32CC6 Accurately ripped (confidence 3) [96F2A7B0] (AR v2) Copy OK
Track 2
Filename C:\EACrips\02 pov piti.wav
Pre-gap length 0:00:00.01
Peak level 98.8 % Extraction speed 4.4 X Track quality 100.0 % Test CRC 1561A5E1 Copy CRC 1561A5E1 Accurately ripped (confidence 3) [DC5D16A4] (AR v2) Copy OK
Track 3
Filename C:\EACrips\03 song for eulalie.wav
Peak level 98.8 % Extraction speed 5.1 X Track quality 100.0 % Test CRC 3E7B8588 Copy CRC 3E7B8588 Accurately ripped (confidence 3) [CD7A0C4B] (AR v2) Copy OK
Track 4
Filename C:\EACrips\04 kersaia.wav
Pre-gap length 0:00:00.01
Peak level 98.8 % Extraction speed 5.5 X Track quality 100.0 % Test CRC 7B2DE69C Copy CRC 7B2DE69C Accurately ripped (confidence 3) [C625E90E] (AR v2) Copy OK
Track 5
Filename C:\EACrips\05 libation for Mr. Brown- Bid em in....wav
Pre-gap length 0:00:00.01
Peak level 98.8 % Extraction speed 5.5 X Track quality 99.9 % Test CRC EEADB9EB Copy CRC EEADB9EB Accurately ripped (confidence 3) [539DCA09] (AR v2) Copy OK
Track 6
Filename C:\EACrips\06 lulla,bye.wav
Pre-gap length 0:00:00.01
Peak level 92.0 % Extraction speed 6.3 X Track quality 100.0 % Test CRC 74865D68 Copy CRC 74865D68 Accurately ripped (confidence 3) [0D6C50B9] (AR v2) Copy OK
Track 7
Filename C:\EACrips\07 i am.wav
Peak level 98.8 % Extraction speed 7.0 X Track quality 100.0 % Test CRC D2C0217F Copy CRC D2C0217F Accurately ripped (confidence 3) [9A16FB0F] (AR v2) Copy OK
Track 8
Filename C:\EACrips\08 how much would you cost.wav
Pre-gap length 0:00:00.01
Peak level 96.4 % Extraction speed 6.9 X Track quality 100.0 % Test CRC D68CBD50 Copy CRC D68CBD50 Accurately ripped (confidence 3) [DA800A8A] (AR v2) Copy OK
All tracks accurately ripped
No errors occurred
End of status report
---- CUETools DB Plugin V2.1.4
[CTDB TOCID: mZwAZrgwcrNW6upyWdl_lnJUXkg-] foundSubmit result: mZwAZrgwcrNW6upyWdl_lnJUXkg- has been confirmedTrack | CTDB Status 1 | (2/2) Accurately ripped 2 | (2/2) Accurately ripped 3 | (2/2) Accurately ripped 4 | (2/2) Accurately ripped 5 | (2/2) Accurately ripped 6 | (2/2) Accurately ripped 7 | (2/2) Accurately ripped 8 | (2/2) Accurately ripped
==== Log checksum 8528798C695E1772C7A36918AD314E29604FD84F9B0FA5F4488606AB245BC203 ====

.cue

REM GENRE "Avant-Garde Jazz"REM DATE 2011REM DISCID 750E5908REM COMMENT "ExactAudioCopy v1.0b3"PERFORMER "Matana Roberts"TITLE "Coin Coin Chapter One: Gens de couleur libres"FILE "01. Rise.wav" WAVE  TRACK 01 AUDIO    TITLE "Rise"    PERFORMER "Matana Roberts"    INDEX 01 00:00:00  TRACK 02 AUDIO    TITLE "Pov Piti"    PERFORMER "Matana Roberts"    INDEX 00 07:27:16FILE "02. Pov Piti.wav" WAVE    INDEX 01 00:00:00FILE "03. Song for Eulalie.wav" WAVE  TRACK 03 AUDIO    TITLE "Song for Eulalie"    PERFORMER "Matana Roberts"    INDEX 01 00:00:00  TRACK 04 AUDIO    TITLE "Kersaia"    PERFORMER "Matana Roberts"    INDEX 00 08:26:08FILE "04. Kersaia.wav" WAVE    INDEX 01 00:00:00  TRACK 05 AUDIO    TITLE "Libation for Mr. Brown: Bid Em In..."    PERFORMER "Matana Roberts"    INDEX 00 07:33:01FILE "05. Libation for Mr. Brown. Bid Em In....wav" WAVE    INDEX 01 00:00:00  TRACK 06 AUDIO    TITLE "Lulla / Bye"    PERFORMER "Matana Roberts"    INDEX 00 09:47:72FILE "06. Lulla. Bye.wav" WAVE    INDEX 01 00:00:00FILE "07. I Am.wav" WAVE  TRACK 07 AUDIO    TITLE "I Am"    PERFORMER "Matana Roberts"    INDEX 01 00:00:00  TRACK 08 AUDIO    TITLE "How Much Would You Cost?"    PERFORMER "Matana Roberts"    INDEX 00 10:05:23FILE "08. How Much Would You Cost.wav" WAVE    INDEX 01 00:00:00

If you like the topic, please click share to help develop our site.

To download the file disable ad blocking, and reload the page.

disable adblock How to disable ad blocking?

Download by magnet link 319 MB Download Torrent

Login using:

Similar topics



   
Current time is: 20-Jul 10:26 :: All times are UTC + 3