Sammy Hagar / Ten 13
Жанр: hard rock
Носитель: CD
Страна-производитель диска (релиза): Japan
Год издания: 2001
Издатель (лейбл): Cabo Wabo
Номер по каталогу: TECI 24043
Страна исполнителя (группы): USA
Аудиокодек: FLAC (*.flac)
Тип рипа: image+.cue
Продолжительность: 66:43
Источник: собственный рип
Наличие сканов в содержимом раздачи: да
Треклист:
1 Shaka Doobie 3:18
2 Let Sally Drive 4:39
3 Serious Ju Ju 3:48
4 The Message 4:32
5 Deeper Kinda Love 4:19
6 A Little Bit More 3:36
7 Ten 13 4:34
8 Protection 4:43
9 3 in the Middle 3:45
10 The Real Deal 3:10
11 Tropic of Capricorn 4:31
12 High and Dry Again (Live)
13 Serious Juju (Radio Mix)
14 Let Sally Drive (Edit)
15 Deeper Kinda Love (Alternative Mix)

Лог создания рипа

X Lossless Decoder version 20160920 (149.2)
XLD extraction logfile from 2019-05-12 09:52:23 +0300
Sammy Hagar / Ten 13
Used drive : Apple SuperDrive (revision )Media type : Pressed CD
Ripper mode : XLD Secure RipperDisable audio cache : OK for the drive with a cache less than 1375KiBMake use of C2 pointers : NORead offset correction : 48Max retry count : 20Gap status : Analyzed, Appended
TOC of the extracted CD Track | Start | Length | Start sector | End sector --------------------------------------------------------- 1 | 00:00:00 | 03:19:20 | 0 | 14944 2 | 03:19:20 | 04:39:32 | 14945 | 35901 3 | 07:58:52 | 03:50:20 | 35902 | 53171 4 | 11:48:72 | 04:32:38 | 53172 | 73609 5 | 16:21:35 | 04:19:25 | 73610 | 93059 6 | 20:40:60 | 03:36:52 | 93060 | 109311 7 | 24:17:37 | 04:34:68 | 109312 | 129929 8 | 28:52:30 | 04:43:65 | 129930 | 151219 9 | 33:36:20 | 03:45:47 | 151220 | 168141 10 | 37:21:67 | 03:11:28 | 168142 | 182494 11 | 40:33:20 | 07:00:35 | 182495 | 214029 12 | 47:33:55 | 06:42:52 | 214030 | 244231 13 | 54:16:32 | 03:51:23 | 244232 | 261579 14 | 58:07:55 | 03:58:17 | 261580 | 279446 15 | 62:05:72 | 04:37:05 | 279447 | 300226
AccurateRip Summary (DiscID: 00234488-0194d89d-cd0fa30f) Track 01 : OK (v2, confidence 5/5) Track 02 : OK (v2, confidence 5/5) Track 03 : OK (v2, confidence 5/5) Track 04 : OK (v2, confidence 5/5) Track 05 : OK (v2, confidence 5/5) Track 06 : OK (v2, confidence 5/5) Track 07 : OK (v2, confidence 5/5) Track 08 : OK (v2, confidence 5/5) Track 09 : OK (v2, confidence 5/5) Track 10 : OK (v2, confidence 5/5) Track 11 : OK (v2, confidence 5/5) Track 12 : OK (v2, confidence 5/5) Track 13 : OK (v2, confidence 5/5) Track 14 : OK (v2, confidence 5/5) Track 15 : OK (v2, confidence 5/5) ->All tracks accurately ripped.
All Tracks Filename : /Users/dima/Desktop/Ten 13.flac Album gain : -9.74 dB Peak : 1.000000 CRC32 hash (test run) : 1BAEF9B9 CRC32 hash : 1BAEF9B9 CRC32 hash (skip zero) : 60827A0D Statistics Read error : 0 Jitter error (maybe fixed) : 0 Retry sector count : 0 Damaged sector count : 0
Track 01 Pre-gap length : 00:02:00
Track gain : -9.75 dB Peak : 0.921600 CRC32 hash (test run) : BD90CC49 CRC32 hash : BD90CC49 CRC32 hash (skip zero) : FFED7AB2 AccurateRip v1 signature : 7E4E1079 AccurateRip v2 signature : 2254532A ->Accurately ripped (v2, confidence 5/5) Statistics Read error : 0 Jitter error (maybe fixed) : 0 Retry sector count : 0 Damaged sector count : 0
Track 02
Track gain : -9.56 dB Peak : 0.943085 CRC32 hash (test run) : C73308CB CRC32 hash : C73308CB CRC32 hash (skip zero) : F9841294 AccurateRip v1 signature : 8A1F425C AccurateRip v2 signature : B9F0A560 ->Accurately ripped (v2, confidence 5/5) Statistics Read error : 0 Jitter error (maybe fixed) : 0 Retry sector count : 0 Damaged sector count : 0
Track 03
Track gain : -9.30 dB Peak : 0.943054 CRC32 hash (test run) : 10F6623B CRC32 hash : 10F6623B CRC32 hash (skip zero) : A4CE8095 AccurateRip v1 signature : 6C3D1AC9 AccurateRip v2 signature : CE3F099F ->Accurately ripped (v2, confidence 5/5) Statistics Read error : 0 Jitter error (maybe fixed) : 0 Retry sector count : 0 Damaged sector count : 0
Track 04 Pre-gap length : 00:01:59
Track gain : -9.49 dB Peak : 0.965027 CRC32 hash (test run) : 8A38BB78 CRC32 hash : 8A38BB78 CRC32 hash (skip zero) : AE9990F3 AccurateRip v1 signature : EF4622F2 AccurateRip v2 signature : 5F4E1E63 ->Accurately ripped (v2, confidence 5/5) Statistics Read error : 0 Jitter error (maybe fixed) : 0 Retry sector count : 0 Damaged sector count : 0
Track 05
Track gain : -10.19 dB Peak : 0.965027 CRC32 hash (test run) : 01A102D7 CRC32 hash : 01A102D7 CRC32 hash (skip zero) : 984C84DC AccurateRip v1 signature : 0569C06C AccurateRip v2 signature : 0A34FBCE ->Accurately ripped (v2, confidence 5/5) Statistics Read error : 0 Jitter error (maybe fixed) : 0 Retry sector count : 0 Damaged sector count : 0
Track 06
Track gain : -9.47 dB Peak : 0.965027 CRC32 hash (test run) : 8FF5BCDB CRC32 hash : 8FF5BCDB CRC32 hash (skip zero) : 91F62AC3 AccurateRip v1 signature : 937F2F61 AccurateRip v2 signature : 0B79FED6 ->Accurately ripped (v2, confidence 5/5) Statistics Read error : 0 Jitter error (maybe fixed) : 0 Retry sector count : 0 Damaged sector count : 0
Track 07 Pre-gap length : 00:00:66
Track gain : -9.94 dB Peak : 0.965027 CRC32 hash (test run) : 68117025 CRC32 hash : 68117025 CRC32 hash (skip zero) : 5CC7B8FA AccurateRip v1 signature : 76A829D2 AccurateRip v2 signature : 98F71DC4 ->Accurately ripped (v2, confidence 5/5) Statistics Read error : 0 Jitter error (maybe fixed) : 0 Retry sector count : 0 Damaged sector count : 0
Track 08
Track gain : -9.35 dB Peak : 0.965027 CRC32 hash (test run) : 3DA2047B CRC32 hash : 3DA2047B CRC32 hash (skip zero) : C4A26864 AccurateRip v1 signature : ED7D8410 AccurateRip v2 signature : 80A0514F ->Accurately ripped (v2, confidence 5/5) Statistics Read error : 0 Jitter error (maybe fixed) : 0 Retry sector count : 0 Damaged sector count : 0
Track 09
Track gain : -10.08 dB Peak : 0.965027 CRC32 hash (test run) : 94144308 CRC32 hash : 94144308 CRC32 hash (skip zero) : C333BBDE AccurateRip v1 signature : 716992AD AccurateRip v2 signature : 01BD1E01 ->Accurately ripped (v2, confidence 5/5) Statistics Read error : 0 Jitter error (maybe fixed) : 0 Retry sector count : 0 Damaged sector count : 0
Track 10 Pre-gap length : 00:00:66
Track gain : -9.91 dB Peak : 0.965027 CRC32 hash (test run) : 19FFC0F6 CRC32 hash : 19FFC0F6 CRC32 hash (skip zero) : 730F8E57 AccurateRip v1 signature : 90FAB76D AccurateRip v2 signature : F4918987 ->Accurately ripped (v2, confidence 5/5) Statistics Read error : 0 Jitter error (maybe fixed) : 0 Retry sector count : 0 Damaged sector count : 0
Track 11 Pre-gap length : 00:00:74
Track gain : -9.01 dB Peak : 0.965027 CRC32 hash (test run) : 5A98D193 CRC32 hash : 5A98D193 CRC32 hash (skip zero) : 10C1D331 AccurateRip v1 signature : 61762DE2 AccurateRip v2 signature : 09FFCCE3 ->Accurately ripped (v2, confidence 5/5) Statistics Read error : 0 Jitter error (maybe fixed) : 0 Retry sector count : 0 Damaged sector count : 0
Track 12 Pre-gap length : 00:00:67
Track gain : -9.93 dB Peak : 0.998901 CRC32 hash (test run) : D04AE803 CRC32 hash : D04AE803 CRC32 hash (skip zero) : 446E499E AccurateRip v1 signature : DC6E3894 AccurateRip v2 signature : 9DAF968C ->Accurately ripped (v2, confidence 5/5) Statistics Read error : 0 Jitter error (maybe fixed) : 0 Retry sector count : 0 Damaged sector count : 0
Track 13 Pre-gap length : 00:02:01
Track gain : -8.99 dB Peak : 1.000000 CRC32 hash (test run) : 989ACA0C CRC32 hash : 989ACA0C CRC32 hash (skip zero) : F238F934 AccurateRip v1 signature : 90A50601 AccurateRip v2 signature : 4090DBFE ->Accurately ripped (v2, confidence 5/5) Statistics Read error : 0 Jitter error (maybe fixed) : 0 Retry sector count : 0 Damaged sector count : 0
Track 14 Pre-gap length : 00:01:54
Track gain : -9.79 dB Peak : 1.000000 CRC32 hash (test run) : 30B74817 CRC32 hash : 30B74817 CRC32 hash (skip zero) : 5060644B AccurateRip v1 signature : CE90378C AccurateRip v2 signature : 35DFC464 ->Accurately ripped (v2, confidence 5/5) Statistics Read error : 0 Jitter error (maybe fixed) : 0 Retry sector count : 0 Damaged sector count : 0
Track 15 Pre-gap length : 00:01:71
Track gain : -10.13 dB Peak : 1.000000 CRC32 hash (test run) : BB0153FA CRC32 hash : BB0153FA CRC32 hash (skip zero) : EC68505B AccurateRip v1 signature : F3CB201C AccurateRip v2 signature : 0832A517 ->Accurately ripped (v2, confidence 5/5) Statistics Read error : 0 Jitter error (maybe fixed) : 0 Retry sector count : 0 Damaged sector count : 0
No errors occurred
End of status report

Содержание индексной карты (.CUE)

TITLE "Ten 13"PERFORMER "Sammy Hagar"CATALOG 4988004082078REM GENRE "Rock"REM DATE "2001"REM DISCNUMBER 1REM TOTALDISCS 1REM DISCID CD0FA30FREM REPLAYGAIN_ALBUM_GAIN -9.74 dBREM REPLAYGAIN_ALBUM_PEAK 1.000000FILE "Ten 13.flac" WAVE  TRACK 01 AUDIO    TITLE "Shaka Doobie"    REM REPLAYGAIN_TRACK_GAIN -9.75 dB    REM REPLAYGAIN_TRACK_PEAK 0.921600    INDEX 01 00:00:00  TRACK 02 AUDIO    TITLE "Let Sally Drive"    REM REPLAYGAIN_TRACK_GAIN -9.56 dB    REM REPLAYGAIN_TRACK_PEAK 0.943085    INDEX 01 03:19:20  TRACK 03 AUDIO    TITLE "Serious Juju"    REM REPLAYGAIN_TRACK_GAIN -9.30 dB    REM REPLAYGAIN_TRACK_PEAK 0.943054    INDEX 01 07:58:52  TRACK 04 AUDIO    TITLE "The Message"    REM REPLAYGAIN_TRACK_GAIN -9.49 dB    REM REPLAYGAIN_TRACK_PEAK 0.965027    INDEX 00 11:47:13    INDEX 01 11:48:72  TRACK 05 AUDIO    TITLE "Deeper Kinda Love"    REM REPLAYGAIN_TRACK_GAIN -10.19 dB    REM REPLAYGAIN_TRACK_PEAK 0.965027    INDEX 01 16:21:35  TRACK 06 AUDIO    TITLE "Little Bit More"    REM REPLAYGAIN_TRACK_GAIN -9.47 dB    REM REPLAYGAIN_TRACK_PEAK 0.965027    INDEX 01 20:40:60  TRACK 07 AUDIO    TITLE "Ten 13"    REM REPLAYGAIN_TRACK_GAIN -9.94 dB    REM REPLAYGAIN_TRACK_PEAK 0.965027    INDEX 00 24:16:46    INDEX 01 24:17:37  TRACK 08 AUDIO    TITLE "Protection"    REM REPLAYGAIN_TRACK_GAIN -9.35 dB    REM REPLAYGAIN_TRACK_PEAK 0.965027    INDEX 01 28:52:30  TRACK 09 AUDIO    TITLE "3 In The Middle"    REM REPLAYGAIN_TRACK_GAIN -10.08 dB    REM REPLAYGAIN_TRACK_PEAK 0.965027    INDEX 01 33:36:20  TRACK 10 AUDIO    TITLE "The Real Deal"    REM REPLAYGAIN_TRACK_GAIN -9.91 dB    REM REPLAYGAIN_TRACK_PEAK 0.965027    INDEX 00 37:21:01    INDEX 01 37:21:67  TRACK 11 AUDIO    TITLE "Tropic Of Capricorn ~Maui Wowie"    REM REPLAYGAIN_TRACK_GAIN -9.01 dB    REM REPLAYGAIN_TRACK_PEAK 0.965027    INDEX 00 40:32:21    INDEX 01 40:33:20  TRACK 12 AUDIO    TITLE "High And Dry Again (Live)"    REM REPLAYGAIN_TRACK_GAIN -9.93 dB    REM REPLAYGAIN_TRACK_PEAK 0.998901    INDEX 00 47:32:63    INDEX 01 47:33:55  TRACK 13 AUDIO    TITLE "Serious Juju (Radio Mix)"    REM REPLAYGAIN_TRACK_GAIN -8.99 dB    REM REPLAYGAIN_TRACK_PEAK 1.000000    INDEX 00 54:14:31    INDEX 01 54:16:32  TRACK 14 AUDIO    TITLE "Let Sally Drive (Edit)"    REM REPLAYGAIN_TRACK_GAIN -9.79 dB    REM REPLAYGAIN_TRACK_PEAK 1.000000    INDEX 00 58:06:01    INDEX 01 58:07:55  TRACK 15 AUDIO    TITLE "Deeper Kinda Love (Alternative Mix)"    REM REPLAYGAIN_TRACK_GAIN -10.13 dB    REM REPLAYGAIN_TRACK_PEAK 1.000000    INDEX 00 62:04:01    INDEX 01 62:05:72

Об исполнителе (группе)

американский гитарист и вокалист. Наиболее известен как вокалист Van Halen.

Об альбоме (сборнике)

Ten 13 - это альбом Sammy Hagar и The Waboritas. В названии его дата рождения (13 октября).

Состав

Sammy Hagar: lead vocals, guitar
Victor Johnson: guitar
Jesse Harms: keyboards
Mona Gnader: bass guitar
David Lauser: drums

If you like the topic, please click share to help develop our site.

To download the file disable ad blocking, and reload the page.

disable adblock How to disable ad blocking?

Download by magnet link 682 MB Download Torrent

Login using:

Similar topics



   
Current time is: 17-Jul 05:20 :: All times are UTC + 3