Steven Heim / Density
Жанр: Progressive Rock
Носитель: WEB
Год издания: 2019
Страна исполнителя (группы): USA
Аудиокодек: FLAC (*.flac)
Тип рипа: tracks
Продолжительность: 01:04:20
Источник: собственная покупка
Наличие сканов в содержимом раздачи: нет

01. Honest [00:05:03]
02. What's the World Coming To? [00:04:30]
03. Find Your Way [00:03:33]
04. It's All Been Done Before [00:06:56]
05. Soliloquy [00:12:11]
06. Return [00:05:12]
07. Entropy [00:10:31]
08. Density [00:03:33]
09. Anticipation [00:05:23]
10. Success [00:04:36]
11. Chains [00:02:46]
Released May 10, 2019

Лог проверки качества

-----------------------
DON'T MODIFY THIS FILE
-----------------------
PERFORMER: auCDtect Task Manager, ver. 1.6.0 RC1 build 1.6.0.1Copyright (c) 2008-2010 y-soft. All rights reservedhttp://y-soft.org
ANALYZER: auCDtect: CD records authenticity detector, version 0.8.2Copyright (c) 2004 Oleg Berngardt. All rights reserved.Copyright (c) 2004 Alexander Djourik. All rights reserved.
FILE: 11. Chains.flac Size: 18504794 Hash: 071EC51B7BAEA4C576A44DDF858F8DC1 Accuracy: -m0 Conclusion: CDDA 100% Signature: D882C04C113C6FF69B152AE98ABF10D1EE73FFECFILE: 10. Success.flac Size: 34063097 Hash: 6EEF0C23A6F9077DB53616C7CDA78439 Accuracy: -m0 Conclusion: CDDA 100% Signature: 4EB61D1C5D84B30DAFB988954813CD797BC7EB3BFILE: 09. Anticipation.flac Size: 39331880 Hash: E96DDE7F1E53BF488910C95FEFF0A66D Accuracy: -m0 Conclusion: CDDA 100% Signature: 8F6150FDAA2BF7F07856C1853FCC1FB252037370FILE: 08. Density.flac Size: 27192150 Hash: 07D34B060FEFFB1EBD0D328F34ECF2DE Accuracy: -m0 Conclusion: CDDA 100% Signature: DF3120D8A6F9B4C54BEDE5AFB89408E889FA752AFILE: 07. Entropy.flac Size: 74157291 Hash: EB0169A0F52A11E993BD211101FC2918 Accuracy: -m0 Conclusion: CDDA 99% Signature: E63C3313B12C40389BD7B331F59C1EDBDC50C8ECFILE: 06. Return.flac Size: 40992529 Hash: 97EDE41C4FF7D081E2B684A0E42BDC80 Accuracy: -m0 Conclusion: CDDA 100% Signature: 34E12717C39F66C92DDC8833A58890E3310D48EEFILE: 05. Soliloquy.flac Size: 73801382 Hash: 6015E297F4B24B607CCF850FA194822D Accuracy: -m0 Conclusion: CDDA 100% Signature: 96D5090AA59D1EF69514E45D5205399EDBEF7F1CFILE: 04. It's All Been Done Before.flac Size: 44270421 Hash: 1BECF9B0D3B4A7E9C6457B60B6E9C473 Accuracy: -m0 Conclusion: CDDA 100% Signature: 16CD1612E35AE882B0EB8E7A577E688961EC04C7FILE: 03. Find Your Way.flac Size: 23538580 Hash: 9AEA679F1C6A736CAF499773267A5FE4 Accuracy: -m0 Conclusion: CDDA 100% Signature: 67A2284BEFC88B30D919238A232CD821932F27A8FILE: 02. What's the World Coming To.flac Size: 34632534 Hash: 8FFE899DA71F5A3144501A370D825318 Accuracy: -m0 Conclusion: CDDA 100% Signature: 2EBA9DA5BF1B22F10C5A420204ABEE200C0BB303FILE: 01. Honest.flac Size: 35987192 Hash: 4AB67C21E1FE7ED14D638DF13938A93B Accuracy: -m0 Conclusion: CDDA 100% Signature: A14F3BB6EBFFAFE5F9AB157203B91F3D8FB0D9C7

DRM log

foobar2000 1.3.12 / Dynamic Range Meter 1.1.1log date: 2019-05-12 10:35:43
--------------------------------------------------------------------------------Analyzed: Steven Heim / Density--------------------------------------------------------------------------------
DR Peak RMS Duration Track--------------------------------------------------------------------------------DR13 0.00 dB -14.55 dB 5:03 01-HonestDR7 -0.09 dB -8.71 dB 4:31 02-What's the World Coming To?DR10 -2.42 dB -13.57 dB 3:34 03-Find Your WayDR12 -0.64 dB -15.27 dB 6:57 04-It's All Been Done BeforeDR11 -0.20 dB -14.03 dB 12:12 05-SoliloquyDR7 -0.27 dB -8.51 dB 5:12 06-ReturnDR9 -0.20 dB -11.40 dB 10:32 07-EntropyDR9 -0.60 dB -10.57 dB 3:33 08-DensityDR9 -0.60 dB -10.51 dB 5:24 09-AnticipationDR8 -0.20 dB -10.01 dB 4:37 10-SuccessDR14 -0.44 dB -16.25 dB 2:46 11-Chains--------------------------------------------------------------------------------
Number of tracks: 11Official DR value: DR10
Samplerate: 44100 HzChannels: 2Bits per sample: 16Bitrate: 886 kbpsCodec: FLAC================================================================================

If you like the topic, please click share to help develop our site.

To download the file disable ad blocking, and reload the page.

disable adblock How to disable ad blocking?

Download by magnet link 429 MB Download Torrent

Login using:

Similar topics



   
Current time is: 20-Jul 10:31 :: All times are UTC + 3