Khadavra / Hypnagogia
Жанр: Progressive Rock/Psychedelic Rock
Носитель: WEB
Год издания: 2019
Страна исполнителя (группы): Sweden
Аудиокодек: FLAC (*.flac)
Тип рипа: tracks
Продолжительность: 01:01:40
Источник: собственная покупка
Наличие сканов в содержимом раздачи: нет

01. Horisontens himlavalv [00:01:13]
02. Down the Rabbithole [00:10:16]
03. Dissolve [00:09:07]
04. Mordängel [00:07:56]
05. Tryptophan [00:05:32]
06. Kollektiv [00:27:36]
Released May 11, 2019

Состав

Seb Eriksson - Electric Guitar, Didgeridoo, Sitar
Alexander Eriksson - Drums & Percussion
Jón Klintö - Bass Guitar and French Horn.
Nils Erichson - Keyboards, Guitar

Лог проверки качества

-----------------------
DON'T MODIFY THIS FILE
-----------------------
PERFORMER: auCDtect Task Manager, ver. 1.6.0 RC1 build 1.6.0.1Copyright (c) 2008-2010 y-soft. All rights reservedhttp://y-soft.org
ANALYZER: auCDtect: CD records authenticity detector, version 0.8.2Copyright (c) 2004 Oleg Berngardt. All rights reserved.Copyright (c) 2004 Alexander Djourik. All rights reserved.
FILE: Khadavra - Hypnagogia - 06 Kollektiv.flac Size: 195603166 Hash: 0639EDE5F6F28B3E73F4AEC9F8174D46 Accuracy: -m0 Conclusion: CDDA 100% Signature: EE0979972B167444ACF26057691D43F251E36C17FILE: Khadavra - Hypnagogia - 05 Tryptophan.flac Size: 35888631 Hash: D00FAD09C6B87623C2AB3EF043A81C9E Accuracy: -m0 Conclusion: CDDA 100% Signature: 5E04BEEF5B9DDDB223D9EC9FC8E76FC5289163D6FILE: Khadavra - Hypnagogia - 04 Mordängel.flac Size: 47245374 Hash: 47A2E30282D1DFF30FBB70E06817C50E Accuracy: -m0 Conclusion: CDDA 100% Signature: 4C03F34887F518BA18B0CC2B23BF26E60824195FFILE: Khadavra - Hypnagogia - 03 Dissolve.flac Size: 55439115 Hash: 79D825D44E7D7608D5518AA54788CAD7 Accuracy: -m0 Conclusion: CDDA 99% Signature: 854AA38AA7E29AACAAA4590B0F067AD4E3F15532FILE: Khadavra - Hypnagogia - 02 Down the Rabbithole.flac Size: 70151723 Hash: CEFB2F4ED8F5C58575C307DACC53B827 Accuracy: -m0 Conclusion: CDDA 99% Signature: B1563C7858AAE7549801299FA2604E13DCDA5EC5FILE: Khadavra - Hypnagogia - 01 Horisontens himlavalv.flac Size: 4497103 Hash: 177E4587C8754D7605780C062519F105 Accuracy: -m0 Conclusion: CDDA 100% Signature: BB8EA6857A079471328EA4B224A0D1930E9FB840

DRM log

foobar2000 1.3.12 / Dynamic Range Meter 1.1.1log date: 2019-05-12 07:39:01
--------------------------------------------------------------------------------Analyzed: Khadavra / Hypnagogia--------------------------------------------------------------------------------
DR Peak RMS Duration Track--------------------------------------------------------------------------------DR14 -6.36 dB -31.25 dB 1:14 01-Horisontens himlavalvDR8 -1.00 dB -11.41 dB 10:16 02-Down the RabbitholeDR10 -1.00 dB -13.64 dB 9:07 03-DissolveDR10 -1.00 dB -12.88 dB 7:56 04-MordängelDR8 -1.00 dB -11.33 dB 5:32 05-TryptophanDR8 -1.00 dB -10.50 dB 27:36 06-Kollektiv--------------------------------------------------------------------------------
Number of tracks: 6Official DR value: DR10
Samplerate: 44100 HzChannels: 2Bits per sample: 16Bitrate: 944 kbpsCodec: FLAC================================================================================

If you like the topic, please click share to help develop our site.

To download the file disable ad blocking, and reload the page.

disable adblock How to disable ad blocking?

Download by magnet link 399 MB Download Torrent

Login using:

Similar topics



   
Current time is: 16-Jul 09:39 :: All times are UTC + 3