Smokie / Needles & Pins: The Best Of Smokie
Жанр: Pop Rock, Soft Rock
Носитель: CD
Страна-производитель диска (релиза): EU
Год издания: 2009
Издатель (лейбл): Camden DeLuxe/ Sony Music
Номер по каталогу: 88697472752
Страна исполнителя (группы): UK
Аудиокодек: FLAC (*.flac)
Тип рипа: image+.cue
Продолжительность: (01:02:48)+(01:06:07)
Источник: собственный рип
Наличие сканов в содержимом раздачи: да

CD 1

[01] If You Think You Know How To Love Me [03:28][02] Living Next Door To Alice [03:29][03] It's Your Life [03:34][04] Don't Play Your Rock 'N' Roll To Me [03:19][05] Needles And Pins [02:46][06] Oh Carol [03:41][07] Wild Wild Angels [03:58][08] Something's Been Making Me Blue [03:02][09] Stumblin' In [03:59][10] For A Few Dollars More [03:37][11] Mexican Girl [03:59][12] Don't Turn Out The Light [04:02][13] We're Flyin' High [03:55][14] Julia [03:04][15] When My Back Was Against The Wall [03:36][16] Sunshine Avenue [03:12][17] Daydreamin' [02:18][18] The Girl Can't Help It [03:49]

CD 2

[01] Lay Back In The Arms Of Someone [04:05][02] I'll Meet You At Midnight [03:16][03] Oh Well, Oh Well [03:17][04] Pass It Around [03:07][05] Headspin [03:32][06] It's Natural [02:38][07] Changing All The Time [03:22][08] Will You Love Me [03:44][09] Little Lucy [03:44][10] It Makes Me Money [02:57][11] Light Up My Life [04:25][12] Liverpool Docks [02:58][13] Walk Right Back [05:32][14] The Dancer [03:52][15] What Can I Do? (Live) [04:14][16] In The Heat Of The Night (Live) [04:57][17] A Day At The Mother-In-Law's [02:51][18] Living Next Door To Alice (Live) [03:36]

Лог создания рипа CD 1

Exact Audio Copy V1.2 from 12. August 2016
EAC extraction logfile from 11. May 2019, 18:25
Smokie / Needles & Pins: The Best Of Smokie cd 1
Used drive : ASUS SDRW-08D1S-U Adapter: 1 ID: 1
Read mode : SecureUtilize accurate stream : YesDefeat audio cache : YesMake use of C2 pointers : No
Read offset correction : 667Overread into Lead-In and Lead-Out : NoFill up missing offset samples with silence : YesDelete leading and trailing silent blocks : NoNull samples used in CRC calculations : YesUsed interface : Native Win32 interface for Win NT & 2000
Used output format : User Defined EncoderSelected bitrate : 128 kBit/sQuality : HighAdd ID3 tag : NoCommand line compressor : C:\Program Files (x86)\Exact Audio Copy\Flac\flac.exeAdditional command line options : -V -8 -T "Date=%year%" -T "Genre=%genre%" %source%
TOC of the extracted CD
Track | Start | Length | Start sector | End sector --------------------------------------------------------- 1 | 0:00.00 | 3:28.31 | 0 | 15630 2 | 3:28.31 | 3:29.10 | 15631 | 31315 3 | 6:57.41 | 3:33.71 | 31316 | 47361 4 | 10:31.37 | 3:18.67 | 47362 | 62278 5 | 13:50.29 | 2:46.30 | 62279 | 74758 6 | 16:36.59 | 3:41.00 | 74759 | 91333 7 | 20:17.59 | 3:57.52 | 91334 | 109160 8 | 24:15.36 | 3:01.54 | 109161 | 122789 9 | 27:17.15 | 3:58.43 | 122790 | 140682 10 | 31:15.58 | 3:36.52 | 140683 | 156934 11 | 34:52.35 | 3:59.12 | 156935 | 174871 12 | 38:51.47 | 4:02.01 | 174872 | 193022 13 | 42:53.48 | 3:54.59 | 193023 | 210631 14 | 46:48.32 | 3:04.03 | 210632 | 224434 15 | 49:52.35 | 3:36.37 | 224435 | 240671 16 | 53:28.72 | 3:11.60 | 240672 | 255056 17 | 56:40.57 | 2:17.67 | 255057 | 265398 18 | 58:58.49 | 3:48.70 | 265399 | 282568
Range status and errors
Selected range
Filename C:\Users\Олег\Desktop\Needles and Pins-The Best of Smokie\cd 1\Smokie - Needles & Pins- The Best Of Smokie cd 1.wav
Peak level 99.7 % Extraction speed 4.2 X Range quality 100.0 % Test CRC F109B4A2 Copy CRC F109B4A2 Copy OK
No errors occurred
AccurateRip summary
Track 1 accurately ripped (confidence 6) [AF740868] (AR v2)Track 2 accurately ripped (confidence 6) [4DD495E4] (AR v2)Track 3 accurately ripped (confidence 6) [815C4762] (AR v2)Track 4 accurately ripped (confidence 6) [704121F2] (AR v2)Track 5 accurately ripped (confidence 6) [16F4AC47] (AR v2)Track 6 accurately ripped (confidence 6) [5885C025] (AR v2)Track 7 accurately ripped (confidence 6) [F50A8F28] (AR v2)Track 8 accurately ripped (confidence 6) [EBE61BFC] (AR v2)Track 9 accurately ripped (confidence 6) [566D1335] (AR v2)Track 10 accurately ripped (confidence 6) [4FCF8844] (AR v2)Track 11 accurately ripped (confidence 6) [26FE8944] (AR v2)Track 12 accurately ripped (confidence 6) [C0CB3A97] (AR v2)Track 13 accurately ripped (confidence 6) [78EF884B] (AR v2)Track 14 accurately ripped (confidence 6) [B0D2AE4C] (AR v2)Track 15 accurately ripped (confidence 6) [6FBF58AF] (AR v2)Track 16 accurately ripped (confidence 6) [5FA0E499] (AR v2)Track 17 accurately ripped (confidence 6) [9F247C1C] (AR v2)Track 18 accurately ripped (confidence 6) [2324F03E] (AR v2)
All tracks accurately ripped
End of status report
---- CUETools DB Plugin V2.1.6
[CTDB TOCID: zZb3FHRvwOWO.KT3745woDjzhXE-] foundSubmit result: zZb3FHRvwOWO.KT3745woDjzhXE- has been confirmedTrack | CTDB Status 1 | (62/62) Accurately ripped 2 | (62/62) Accurately ripped 3 | (62/62) Accurately ripped 4 | (62/62) Accurately ripped 5 | (62/62) Accurately ripped 6 | (62/62) Accurately ripped 7 | (62/62) Accurately ripped 8 | (62/62) Accurately ripped 9 | (62/62) Accurately ripped 10 | (62/62) Accurately ripped 11 | (61/62) Accurately ripped 12 | (62/62) Accurately ripped 13 | (61/62) Accurately ripped 14 | (61/62) Accurately ripped 15 | (62/62) Accurately ripped 16 | (61/62) Accurately ripped 17 | (61/62) Accurately ripped 18 | (61/62) Accurately ripped
==== Log checksum A7B51DB5DDB02D343530F03C51CDD5548F56AEB9DAB3CE1F9F0C823CCCFD7487 ====

Лог создания рипа CD 2

Exact Audio Copy V1.2 from 12. August 2016
EAC extraction logfile from 11. May 2019, 17:24
Smokie / Needles & Pins: The Best Of Smokie cd 2
Used drive : ASUS SDRW-08D1S-U Adapter: 1 ID: 1
Read mode : SecureUtilize accurate stream : YesDefeat audio cache : YesMake use of C2 pointers : No
Read offset correction : 667Overread into Lead-In and Lead-Out : NoFill up missing offset samples with silence : YesDelete leading and trailing silent blocks : NoNull samples used in CRC calculations : YesUsed interface : Native Win32 interface for Win NT & 2000
Used output format : User Defined EncoderSelected bitrate : 128 kBit/sQuality : HighAdd ID3 tag : NoCommand line compressor : C:\Program Files (x86)\Exact Audio Copy\Flac\flac.exeAdditional command line options : -V -8 -T "Date=%year%" -T "Genre=%genre%" %source%
TOC of the extracted CD
Track | Start | Length | Start sector | End sector --------------------------------------------------------- 1 | 0:00.00 | 4:05.04 | 0 | 18378 2 | 4:05.04 | 3:15.47 | 18379 | 33050 3 | 7:20.51 | 3:16.65 | 33051 | 47815 4 | 10:37.41 | 3:07.20 | 47816 | 61860 5 | 13:44.61 | 3:31.39 | 61861 | 77724 6 | 17:16.25 | 2:38.26 | 77725 | 89600 7 | 19:54.51 | 3:21.60 | 89601 | 104735 8 | 23:16.36 | 3:44.20 | 104736 | 121555 9 | 27:00.56 | 3:44.26 | 121556 | 138381 10 | 30:45.07 | 2:56.41 | 138382 | 151622 11 | 33:41.48 | 4:25.21 | 151623 | 171518 12 | 38:06.69 | 2:57.67 | 171519 | 184860 13 | 41:04.61 | 5:31.72 | 184861 | 209757 14 | 46:36.58 | 3:51.64 | 209758 | 227146 15 | 50:28.47 | 4:13.38 | 227147 | 246159 16 | 54:42.10 | 4:57.12 | 246160 | 268446 17 | 59:39.22 | 2:51.23 | 268447 | 281294 18 | 62:30.45 | 3:36.07 | 281295 | 297501
Range status and errors
Selected range
Filename C:\Users\Олег\Desktop\Needles and Pins-The Best of Smokie\cd 2\Smokie - Needles & Pins- The Best Of Smokie cd 2.wav
Peak level 99.7 % Extraction speed 4.2 X Range quality 100.0 % Test CRC 1001BC70 Copy CRC 1001BC70 Copy OK
No errors occurred
AccurateRip summary
Track 1 accurately ripped (confidence 6) [3A7BCB9C] (AR v2)Track 2 accurately ripped (confidence 6) [F52D3E15] (AR v2)Track 3 accurately ripped (confidence 6) [6B137988] (AR v2)Track 4 accurately ripped (confidence 6) [F8C1809F] (AR v2)Track 5 accurately ripped (confidence 6) [7D882CCA] (AR v2)Track 6 accurately ripped (confidence 6) [0D451735] (AR v2)Track 7 accurately ripped (confidence 6) [EE1CC361] (AR v2)Track 8 accurately ripped (confidence 6) [11EF0BDC] (AR v2)Track 9 accurately ripped (confidence 6) [27FC3B44] (AR v2)Track 10 accurately ripped (confidence 6) [30FEBF08] (AR v2)Track 11 accurately ripped (confidence 6) [C4AB14D9] (AR v2)Track 12 accurately ripped (confidence 6) [21E74AAD] (AR v2)Track 13 accurately ripped (confidence 6) [F01AC47C] (AR v2)Track 14 accurately ripped (confidence 6) [1FDAD66A] (AR v2)Track 15 accurately ripped (confidence 6) [214B01CA] (AR v2)Track 16 accurately ripped (confidence 6) [7155889F] (AR v2)Track 17 accurately ripped (confidence 6) [2E30BC62] (AR v2)Track 18 accurately ripped (confidence 6) [9C7338D6] (AR v2)
All tracks accurately ripped
End of status report
---- CUETools DB Plugin V2.1.6
[CTDB TOCID: ervq6gw6H51wr4CtjHV.ONCiKA8-] foundSubmit result: ervq6gw6H51wr4CtjHV.ONCiKA8- has been confirmedTrack | CTDB Status 1 | (58/58) Accurately ripped 2 | (58/58) Accurately ripped 3 | (58/58) Accurately ripped 4 | (58/58) Accurately ripped 5 | (58/58) Accurately ripped 6 | (58/58) Accurately ripped 7 | (58/58) Accurately ripped 8 | (58/58) Accurately ripped 9 | (58/58) Accurately ripped 10 | (58/58) Accurately ripped 11 | (58/58) Accurately ripped 12 | (58/58) Accurately ripped 13 | (58/58) Accurately ripped 14 | (58/58) Accurately ripped 15 | (58/58) Accurately ripped 16 | (58/58) Accurately ripped 17 | (58/58) Accurately ripped 18 | (58/58) Accurately ripped
==== Log checksum ED1219B28797009643479E087B38467A423C686B748939377F73A86F12D0974A ====

Содержание индексной карты CD 1 (.CUE)

REM GENRE RockREM DATE 2009REM DISCID F90EB712REM COMMENT "ExactAudioCopy v1.2"PERFORMER "Smokie"TITLE "Needles & Pins: The Best Of Smokie cd 1"REM COMPOSER ""FILE "Smokie - Needles & Pins- The Best Of Smokie cd 1.flac" WAVE  TRACK 01 AUDIO    TITLE "If You Think You Know How To Love Me"    PERFORMER "Smokie"    REM COMPOSER ""    INDEX 01 00:00:00  TRACK 02 AUDIO    TITLE "Living Next Door To Alice"    PERFORMER "Smokie"    REM COMPOSER ""    INDEX 00 03:26:41    INDEX 01 03:28:31  TRACK 03 AUDIO    TITLE "It's Your Life"    PERFORMER "Smokie"    REM COMPOSER ""    INDEX 00 06:55:51    INDEX 01 06:57:41  TRACK 04 AUDIO    TITLE "Don't Play Your Rock 'N' Roll To Me"    PERFORMER "Smokie"    REM COMPOSER ""    INDEX 00 10:29:47    INDEX 01 10:31:37  TRACK 05 AUDIO    TITLE "Needles And Pins"    PERFORMER "Smokie"    REM COMPOSER ""    INDEX 00 13:48:39    INDEX 01 13:50:29  TRACK 06 AUDIO    TITLE "Oh Carol"    PERFORMER "Smokie"    REM COMPOSER ""    INDEX 00 16:34:69    INDEX 01 16:36:59  TRACK 07 AUDIO    TITLE "Wild Wild Angels"    PERFORMER "Smokie"    REM COMPOSER ""    INDEX 00 20:15:69    INDEX 01 20:17:59  TRACK 08 AUDIO    TITLE "Something's Been Making Me Blue"    PERFORMER "Smokie"    REM COMPOSER ""    INDEX 00 24:13:46    INDEX 01 24:15:36  TRACK 09 AUDIO    TITLE "Stumblin' In"    PERFORMER "Smokie"    REM COMPOSER ""    INDEX 00 27:15:25    INDEX 01 27:17:15  TRACK 10 AUDIO    TITLE "For A Few Dollars More"    PERFORMER "Smokie"    REM COMPOSER ""    INDEX 00 31:13:68    INDEX 01 31:15:58  TRACK 11 AUDIO    TITLE "Mexican Girl"    PERFORMER "Smokie"    REM COMPOSER ""    INDEX 00 34:50:45    INDEX 01 34:52:35  TRACK 12 AUDIO    TITLE "Don't Turn Out Your Light"    PERFORMER "Smokie"    REM COMPOSER ""    INDEX 00 38:49:57    INDEX 01 38:51:47  TRACK 13 AUDIO    TITLE "We're Flyin' High"    PERFORMER "Smokie"    REM COMPOSER ""    INDEX 00 42:51:58    INDEX 01 42:53:48  TRACK 14 AUDIO    TITLE "Julia"    PERFORMER "Smokie"    REM COMPOSER ""    INDEX 00 46:46:42    INDEX 01 46:48:32  TRACK 15 AUDIO    TITLE "When My Back Was Against The Wall"    PERFORMER "Smokie"    REM COMPOSER ""    INDEX 00 49:50:45    INDEX 01 49:52:35  TRACK 16 AUDIO    TITLE "Sunshine Avenue"    PERFORMER "Smokie"    REM COMPOSER ""    INDEX 00 53:27:15    INDEX 01 53:28:72  TRACK 17 AUDIO    TITLE "Daydreamin'"    PERFORMER "Smokie"    REM COMPOSER ""    INDEX 00 56:38:74    INDEX 01 56:40:57  TRACK 18 AUDIO    TITLE "The Girl Can't Help It"    PERFORMER "Smokie"    REM COMPOSER ""    INDEX 00 58:56:65    INDEX 01 58:58:49

Содержание индексной карты CD 2 (.CUE)

REM GENRE RockREM DATE 2009REM DISCID 0D0F7E12REM COMMENT "ExactAudioCopy v1.2"PERFORMER "Smokie"TITLE "Needles & Pins: The Best Of Smokie cd 2"REM COMPOSER ""FILE "Smokie - Needles & Pins- The Best Of Smokie cd 2.flac" WAVE  TRACK 01 AUDIO    TITLE "Lay Back In The Arms Of Someone"    PERFORMER "Smokie"    REM COMPOSER ""    INDEX 01 00:00:00  TRACK 02 AUDIO    TITLE "I'll Meet You At Midnight"    PERFORMER "Smokie"    REM COMPOSER ""    INDEX 00 04:04:26    INDEX 01 04:05:04  TRACK 03 AUDIO    TITLE "Oh Well, Oh Well"    PERFORMER "Smokie"    REM COMPOSER ""    INDEX 00 07:19:28    INDEX 01 07:20:51  TRACK 04 AUDIO    TITLE "Pass It Around"    PERFORMER "Smokie"    REM COMPOSER ""    INDEX 00 10:36:35    INDEX 01 10:37:41  TRACK 05 AUDIO    TITLE "Headspin"    PERFORMER "Smokie"    REM COMPOSER ""    INDEX 00 13:43:66    INDEX 01 13:44:61  TRACK 06 AUDIO    TITLE "It's Natural"    PERFORMER "Smokie"    REM COMPOSER ""    INDEX 00 17:14:29    INDEX 01 17:16:25  TRACK 07 AUDIO    TITLE "Changing All The Time"    PERFORMER "Smokie"    REM COMPOSER ""    INDEX 00 19:53:16    INDEX 01 19:54:51  TRACK 08 AUDIO    TITLE "Will You Love Me"    PERFORMER "Smokie"    REM COMPOSER ""    INDEX 00 23:15:08    INDEX 01 23:16:36  TRACK 09 AUDIO    TITLE "Little Lucy"    PERFORMER "Smokie"    REM COMPOSER ""    INDEX 00 26:59:25    INDEX 01 27:00:56  TRACK 10 AUDIO    TITLE "It Makes Me Money"    PERFORMER "Smokie"    REM COMPOSER ""    INDEX 00 30:43:67    INDEX 01 30:45:07  TRACK 11 AUDIO    TITLE "Light Up My Life"    PERFORMER "Smokie"    REM COMPOSER ""    INDEX 00 33:40:18    INDEX 01 33:41:48  TRACK 12 AUDIO    TITLE "Liverpool Docks"    PERFORMER "Smokie"    REM COMPOSER ""    INDEX 00 38:05:29    INDEX 01 38:06:69  TRACK 13 AUDIO    TITLE "Walk Right Back"    PERFORMER "Smokie"    REM COMPOSER ""    INDEX 00 41:03:30    INDEX 01 41:04:61  TRACK 14 AUDIO    TITLE "The Dancer"    PERFORMER "Smokie"    REM COMPOSER ""    INDEX 00 46:34:62    INDEX 01 46:36:58  TRACK 15 AUDIO    TITLE "What Can I Do? [Live]"    PERFORMER "Smokie"    REM COMPOSER ""    INDEX 00 50:26:51    INDEX 01 50:28:47  TRACK 16 AUDIO    TITLE "In The Heat Of The Night [Live]"    PERFORMER "Smokie"    REM COMPOSER ""    INDEX 00 54:40:14    INDEX 01 54:42:10  TRACK 17 AUDIO    TITLE "A Day At The Mother-In-Law's"    PERFORMER "Smokie"    REM COMPOSER ""    INDEX 00 59:37:26    INDEX 01 59:39:22  TRACK 18 AUDIO    TITLE "Living Next Door To Alice [Live]"    PERFORMER "Smokie"    REM COMPOSER ""    INDEX 00 62:28:49    INDEX 01 62:30:45

If you like the topic, please click share to help develop our site.

To download the file disable ad blocking, and reload the page.

disable adblock How to disable ad blocking?

Download by magnet link 859 MB Download Torrent

Login using:

Similar topics



   
Current time is: 20-Jul 10:32 :: All times are UTC + 3