Юкатан / Yucatán Страна: Испания
Жанр: комедия
Год выпуска: 2018
Продолжительность: 02:09:43
Перевод: Одноголосый (закадровый) [maksciganov] по переводу студии "Синема-УС"
Режиссёр: Даниэль Монсон / Daniel Monzón
В главных ролях: Луис Тосар, Родриго Де ла Серна, Жоан Пера, Стефани Кайо, Глория Муньос, Алисия Фернандес, Ткселл Эксендри, Лупе Рода, Августин Хименес, Хорхе Асин
Описание: Два соперничающих афериста Лукас и Роберто, а также их возлюбленная Вероника вступают в борьбу за право облапошить выигравшего в лотерею 160 миллионов евро пекаря Антонио, который отправился в круиз вместе со своей многочисленной семьей, тоже претендующей на его деньги.- -Видео исходник: Yucatan.2018.1080p.BluRay.x264-BiPOLAR
Качество видео: HDRip
Формат видео: АVI
Видео: 720x304 (2.35:1), 24.000 fps, XviD ~1380 kbps avg, 0.263 bit/pixel
Аудио : 48 kHz, AC3 Dolby Digital, 2/0 (L,R) ch, ~192 kbps-
Спасибо студии "Синема-УС" за перевод фильма.

Дороги 5.1_AC3, DTS, отдельно

Дорога с переводом в формате AC3. 5.1, 448 kbps к этому видео или к другому, с продолжительностью_02:09:43 ,
и в формате DTS. 5.1, 1509 kbps ( будет чуть позже, после раздачи фильма)

MediaInfo

GeneralComplete name                       : Yucatan.2018.HDRip.VO.maksciganov.aviFormat                              : AVIFormat/Info                         : Audio Video InterleaveFile size                           : 1.43 GiBDuration                            : 2h 9mnOverall bit rate                    : 1 582 KbpsWriting application                 : VirtualDubMod 1.5.10.3 | www.virtualdub-fr.org || (build 2550/release)Writing library                     : VirtualDubMod build 2550/release
VideoID : 0Format : MPEG-4 VisualFormat profile : Advanced [email protected] settings, BVOP : 2Format settings, QPel : NoFormat settings, GMC : No warppointsFormat settings, Matrix : Default (MPEG)Codec ID : XVIDCodec ID/Hint : XviDDuration : 2h 9mnBit rate : 1 380 KbpsWidth : 720 pixelsHeight : 304 pixelsDisplay aspect ratio : 2.35:1Frame rate : 24.000 fpsColor space : YUVChroma subsampling : 4:2:0Bit depth : 8 bitsScan type : ProgressiveCompression mode : LossyBits/(Pixel*Frame) : 0.263Stream size : 1.25 GiB (87%)Writing library : XviD 1.2.1 (UTC 2008-12-04)
AudioID : 1Format : AC-3Format/Info : Audio Coding 3Mode extension : CM (complete main)Codec ID : 2000Duration : 2h 9mnBit rate mode : ConstantBit rate : 192 KbpsChannel(s) : 2 channelsChannel positions : Front: L RSampling rate : 48.0 KHzBit depth : 16 bitsCompression mode : LossyStream size : 178 MiB (12%)Alignment : Split accross interleavesInterleave, duration : 42 ms (1.00 video frame)Interleave, preload duration : 500 ms

Скриншот c названием фильма


If you like the topic, please click share to help develop our site.

To download the file disable ad blocking, and reload the page.

disable adblock How to disable ad blocking?

Download by magnet link 1.43 GB Download Torrent

Login using:



   
Current time is: 20-Jul 10:15 :: All times are UTC + 3