Taana Gardner / Taana Gardner
Жанр: Disco, Funk
Носитель: CD
Страна-производитель диска (релиза): UK
Год издания: 2013
Издатель (лейбл): Big Break Records
Номер по каталогу: CDBBR 0213
Аудиокодек: FLAC (*.flac)
Тип рипа: tracks+.cue
Продолжительность: 01:19:02
Источник: локальная сеть
Наличие сканов в содержимом раздачи: да
Треклист:
1. WHEN YOU TOUCH ME
2. WE GOT TO WORK IT OUT
3. JUST BE A FRIEND
4. PARADISE EXPRESS
5. WORK THAT BODY
BONUS TRACKS
6. HEARTBEAT (12” club version)
7. NO FRILLS (12” vocal version)
8. THAT'S THE WORLD (12" club version)
9. HEARTBEAT (12” party version)
10. NO FRILLS (12” party version)

Лог создания рипа

Exact Audio Copy V1.0 beta 3 from 29. August 2011
EAC extraction logfile from 11. September 2014, 12:28
Taana Gardner / Taana Gardner
Used drive : TSSTcorp CDDVDW Adapter: 0 ID: 0
Read mode : SecureUtilize accurate stream : YesDefeat audio cache : YesMake use of C2 pointers : No
Read offset correction : 6Overread into Lead-In and Lead-Out : NoFill up missing offset samples with silence : YesDelete leading and trailing silent blocks : NoNull samples used in CRC calculations : YesUsed interface : Native Win32 interface for Win NT & 2000Gap handling : Appended to previous track
Used output format : User Defined EncoderSelected bitrate : 128 kBit/sQuality : HighAdd ID3 tag : NoCommand line compressor : C:\Program Files (x86)\Exact Audio Copy\Flac\flac.exeAdditional command line options : -8 -V -T "ARTIST=%artist%" -T "TITLE=%title%" -T "ALBUM=%albumtitle%" -T "DATE=%year%" -T "TRACKNUMBER=%tracknr%" -T "TOTALTRACKS=%numtracks%" -T "GENRE=%genre%" -T "ALBUMARTIST=%albumartist%" -T "ALBUM ARTIST=%albumartist%" -T "COMMENT=EAC Secure Mode, Test & Copy, AccurateRip, FLAC -8" %source%
TOC of the extracted CD
Track | Start | Length | Start sector | End sector --------------------------------------------------------- 1 | 0:00.00 | 11:51.47 | 0 | 53371 2 | 11:51.47 | 5:46.11 | 53372 | 79332 3 | 17:37.58 | 9:39.62 | 79333 | 122819 4 | 27:17.45 | 6:18.73 | 122820 | 151242 5 | 33:36.43 | 8:34.35 | 151243 | 189827 6 | 42:11.03 | 9:53.12 | 189828 | 234314 7 | 52:04.15 | 6:27.08 | 234315 | 263347 8 | 58:31.23 | 7:03.29 | 263348 | 295101 9 | 65:34.52 | 6:28.14 | 295102 | 324215 10 | 72:02.66 | 7:03.44 | 324216 | 355984
Track 1
Filename C:\AddisistheGodFlac\01 - When You Touch Me.wav
Pre-gap length 0:00:02.00
Peak level 96.6 % Extraction speed 1.4 X Track quality 100.0 % Test CRC CDA9627D Copy CRC CDA9627D Accurately ripped (confidence 2) [AC72F6AE] (AR v2) Copy OK
Track 2
Filename C:\AddisistheGodFlac\02 - We Gotta Work It Out.wav
Pre-gap length 0:00:02.14
Peak level 96.6 % Extraction speed 1.5 X Track quality 100.0 % Test CRC 6DF53A02 Copy CRC 6DF53A02 Accurately ripped (confidence 3) [F8C30F3B] (AR v2) Copy OK
Track 3
Filename C:\AddisistheGodFlac\03 - Just Be A Friend.wav
Pre-gap length 0:00:02.04
Peak level 96.6 % Extraction speed 1.7 X Track quality 100.0 % Test CRC 8C299E3C Copy CRC 8C299E3C Accurately ripped (confidence 3) [AAFB8FE2] (AR v2) Copy OK
Track 4
Filename C:\AddisistheGodFlac\04 - Paradise Express.wav
Pre-gap length 0:00:02.10
Peak level 96.6 % Extraction speed 1.7 X Track quality 100.0 % Test CRC 4FC23D99 Copy CRC 4FC23D99 Accurately ripped (confidence 2) [BEC836DB] (AR v2) Copy OK
Track 5
Filename C:\AddisistheGodFlac\05 - Work That Body.wav
Pre-gap length 0:00:02.32
Peak level 96.6 % Extraction speed 1.9 X Track quality 100.0 % Test CRC BC90BFAD Copy CRC BC90BFAD Accurately ripped (confidence 3) [90590090] (AR v2) Copy OK
Track 6
Filename C:\AddisistheGodFlac\06 - Heartbeat (12' Club Version).wav
Pre-gap length 0:00:04.10
Peak level 96.6 % Extraction speed 2.0 X Track quality 100.0 % Test CRC 6EAC90CB Copy CRC 6EAC90CB Accurately ripped (confidence 3) [8E23E3E7] (AR v2) Copy OK
Track 7
Filename C:\AddisistheGodFlac\07 - No Frills (12' Club Version).wav
Pre-gap length 0:00:02.16
Peak level 96.6 % Extraction speed 1.8 X Track quality 99.9 % Test CRC 44C46C17 Copy CRC 44C46C17 Accurately ripped (confidence 3) [5696A148] (AR v2) Copy OK
Track 8
Filename C:\AddisistheGodFlac\08 - That's The Word (12' Club Version).wav
Pre-gap length 0:00:01.09
Peak level 96.6 % Extraction speed 2.1 X Track quality 100.0 % Test CRC 44AD269C Copy CRC 44AD269C Accurately ripped (confidence 2) [787953C5] (AR v2) Copy OK
Track 9
Filename C:\AddisistheGodFlac\09 - Heartbeat (12' Party Version).wav
Pre-gap length 0:00:01.58
Peak level 96.6 % Extraction speed 2.2 X Track quality 100.0 % Test CRC 23FCE589 Copy CRC 23FCE589 Accurately ripped (confidence 3) [F6ACE23F] (AR v2) Copy OK
Track 10
Filename C:\AddisistheGodFlac\10 - No Frills (12' Party Version).wav
Pre-gap length 0:00:01.63
Peak level 96.4 % Extraction speed 2.2 X Track quality 100.0 % Test CRC C5B016D6 Copy CRC C5B016D6 Accurately ripped (confidence 2) [7E098EC7] (AR v2) Copy OK
All tracks accurately ripped
No errors occurred
End of status report
==== Log checksum CB7C7703E11E547DECFACF225C596A19DE0E4366DEFC3F46BFFF09C08951592E ====

Содержание индексной карты (.CUE)

REM GENRE SoulREM DATE 1979REM DISCID 81128A0AREM COMMENT "ExactAudioCopy v1.0b3"PERFORMER "Taana Gardner"TITLE "Taana Gardner"FILE "01 - When You Touch Me.wav" WAVE  TRACK 01 AUDIO    TITLE "When You Touch Me"    PERFORMER "Taana Gardner"    INDEX 01 00:00:00  TRACK 02 AUDIO    TITLE "We Gotta Work It Out"    PERFORMER "Taana Gardner"    INDEX 00 11:49:33FILE "02 - We Gotta Work It Out.wav" WAVE    INDEX 01 00:00:00  TRACK 03 AUDIO    TITLE "Just Be A Friend"    PERFORMER "Taana Gardner"    INDEX 00 05:44:07FILE "03 - Just Be A Friend.wav" WAVE    INDEX 01 00:00:00  TRACK 04 AUDIO    TITLE "Paradise Express"    PERFORMER "Taana Gardner"    INDEX 00 09:37:52FILE "04 - Paradise Express.wav" WAVE    INDEX 01 00:00:00  TRACK 05 AUDIO    TITLE "Work That Body"    PERFORMER "Taana Gardner"    INDEX 00 06:16:41FILE "05 - Work That Body.wav" WAVE    INDEX 01 00:00:00  TRACK 06 AUDIO    TITLE "Heartbeat (12' Club Version)"    PERFORMER "Taana Gardner"    INDEX 00 08:30:25FILE "06 - Heartbeat (12' Club Version).wav" WAVE    INDEX 01 00:00:00  TRACK 07 AUDIO    TITLE "No Frills (12' Club Version)"    PERFORMER "Taana Gardner"    INDEX 00 09:50:71FILE "07 - No Frills (12' Club Version).wav" WAVE    INDEX 01 00:00:00  TRACK 08 AUDIO    TITLE "That's The Word  (12' Club Version)"    PERFORMER "Taana Gardner"    INDEX 00 06:25:74FILE "08 - That's The Word  (12' Club Version).wav" WAVE    INDEX 01 00:00:00  TRACK 09 AUDIO    TITLE "Heartbeat (12' Party Version)"    PERFORMER "Taana Gardner"    INDEX 00 07:01:46FILE "09 - Heartbeat (12' Party Version).wav" WAVE    INDEX 01 00:00:00  TRACK 10 AUDIO    TITLE "No Frills (12' Party Version)"    PERFORMER "Taana Gardner"    INDEX 00 06:26:26FILE "10 - No Frills (12' Party Version).wav" WAVE    INDEX 01 00:00:00

If you like the topic, please click share to help develop our site.

To download the file disable ad blocking, and reload the page.

disable adblock How to disable ad blocking?

Download by magnet link 511 MB Download Torrent

Login using:

Similar topics



   
Current time is: 17-Jul 06:17 :: All times are UTC + 3