Baba Blues

Deep in the Mirror





• Жанр: Blues
• Носитель: WEB
• Год издания: 2005
• Страна: Sweden
• Аудиокодек: FLAC (*.flac)
• Тип рипа: tracks
• Продолжительность: 00:57:35
• Источник:
internet
• Наличие сканов: front

01 - Heavy Stone (00:06:19)
02 - Blues Is Gonna Be Your Friend (00:04:27)
03 - Shyness Is The Shadow Of Love (00:05:55)
04 - Juvenile Land (00:06:43)
05 - When I’m In There (00:05:36)
06 - Deep Down In The Mirror (00:05:39)
07 - You Said You Wanted To Kill Me, Darling (00:05:21)
08 - Looking For Somebody (00:04:30)
09 - Walking In Blood (00:04:28)
10 - Mayday For The Mayfly (00:03:02)
11 - It’s Better To Die The Natural Way, Than To Starve Yourself To Death (00:05:31)
--

• Лог DRM •

foobar2000 1.4.2 / Dynamic Range Meter 1.1.1log date: 2019-05-12 13:00:05
--------------------------------------------------------------------------------Analyzed: Baba Blues / Deep in the Mirror--------------------------------------------------------------------------------
DR Peak RMS Duration Track--------------------------------------------------------------------------------DR8 -0.10 dB -10.30 dB 6:19 01-Heavy StoneDR9 -0.10 dB -11.04 dB 4:27 02-Blues Is Gonna Be Your FriendDR8 -0.10 dB -10.33 dB 5:55 03-Shyness Is the Shadow of LoveDR9 -0.10 dB -11.15 dB 6:43 04-Juvenile LandDR9 -0.10 dB -10.02 dB 5:36 05-When I’m in ThereDR8 -0.10 dB -9.21 dB 5:40 06-Deep down in the MirrorDR8 -0.10 dB -10.50 dB 5:21 07-You Said You Wanted to Kill Me, DarlingDR9 -0.10 dB -10.14 dB 4:30 08-Looking for SomebodyDR9 -0.10 dB -11.49 dB 4:29 09-Walking in BloodDR9 -0.10 dB -10.41 dB 3:03 10-Mayday for the MayflyDR9 -0.10 dB -12.16 dB 5:32 11-It’s Better to Die the Natural Way, Than to Starve Yourself to Death--------------------------------------------------------------------------------
Number of tracks: 11Official DR value: DR9
Samplerate: 44100 HzChannels: 2Bits per sample: 16Bitrate: 982 kbpsCodec: FLAC================================================================================
-

• Лог проверки качества •

-----------------------
DON'T MODIFY THIS FILE
-----------------------
PERFORMER: auCDtect Task Manager, ver. 1.6.0 RC1 build 1.6.0.1Copyright (c) 2008-2010 y-soft. All rights reservedhttp://y-soft.org
ANALYZER: auCDtect: CD records authenticity detector, version 0.8.2Copyright (c) 2004 Oleg Berngardt. All rights reserved.Copyright (c) 2004 Alexander Djourik. All rights reserved.
FILE: 11.flac Size: 41392238 Hash: 51A21FBC693E2D6EB9198842E07637D8 Accuracy: -m0 Conclusion: CDDA 100% Signature: 49F602AEDCCC82CA42050CF2F6F68B574FFC196CFILE: 10.flac Size: 17913268 Hash: CDC628830ACB75EF23D57465943094BC Accuracy: -m0 Conclusion: CDDA 100% Signature: 67388B7C8409DC0F3F22EB77604017AB3930154AFILE: 09.flac Size: 32099918 Hash: 87ABD9C672EFA7CAC1D8E8D5D0176164 Accuracy: -m0 Conclusion: CDDA 100% Signature: CB9DBA38FF0987A1F07DC17D3E52B6E6014AE860FILE: 08.flac Size: 30511932 Hash: 6B6E904F7CC265E4716363B00A0D1345 Accuracy: -m0 Conclusion: CDDA 100% Signature: 6266B119C63CD95631E1277E2590288A149AD67BFILE: 07.flac Size: 35117858 Hash: 4AEF8EB3963B7142642B2C30688BA830 Accuracy: -m0 Conclusion: CDDA 100% Signature: CF8623BB7DCF37612435FEC6C3D28CC8908D785EFILE: 06.flac Size: 37974142 Hash: FF1C24B2CEC4B0AF2D5E54343E158E39 Accuracy: -m0 Conclusion: CDDA 100% Signature: 5C4FECD1C5B73A6F05E9EFEF511F5169D7A0F219FILE: 05.flac Size: 35692794 Hash: 76B994346F087125F230FAF0FF6C8570 Accuracy: -m0 Conclusion: CDDA 100% Signature: B76CC37F57C381339C733BEA3864A2A674759DE8FILE: 04.flac Size: 43442291 Hash: A1C6561EBBEDBB792545187EFCCB1C63 Accuracy: -m0 Conclusion: CDDA 100% Signature: 909D66D5A221288C6B21F7010A7863C83887299FFILE: 03.flac Size: 40429625 Hash: EB48A8AA7C88F58091C5FC57E8B08742 Accuracy: -m0 Conclusion: CDDA 100% Signature: BC79A8B7D35DBF8F9FB2B2895B22DAEA2162F3DCFILE: 02.flac Size: 32542469 Hash: 558ECCD2D6EE25D9E8F5232546F8F7F9 Accuracy: -m0 Conclusion: CDDA 100% Signature: AC8D0853925540247E6E3DB8BC82C586370131CCFILE: 01.flac Size: 44037050 Hash: C65119D414DE5D7DA1B0C76E7975B619 Accuracy: -m0 Conclusion: CDDA 100% Signature: F4BDD170D2E9B379FC52E979AD1C0B782EFE0C36
-

If you like the topic, please click share to help develop our site.

To download the file disable ad blocking, and reload the page.

disable adblock How to disable ad blocking?

Download by magnet link 368 MB Download Torrent

Login using:

Similar topics



   
Current time is: 19-Jul 23:35 :: All times are UTC + 3