Thrash Bombz / Prisoner Of Disaster
Жанр: Thrash Metal
Носитель: CD
Год издания: 2018
Издатель (лейбл): Iron Shield Records
Номер по каталогу: ISR 073-18/C
Страна исполнителя (группы): Italy
Аудиокодек: FLAC (*.flac)
Тип рипа: image+.cue
Продолжительность: 00:30:01
Источник: собственный рип
Наличие сканов в содержимом раздачи: да
Треклист:
01. The Order 00:57
02. Prisoner Of Disaster 04:25
03. Apocalypse...Prepare Yourself To Die 05:29
04. Mafia Demonz 04:12
05. The Torture Never Stops (W.A.S.P. cover) 03:36
06. Live To Kill 06:37
07. The Headquarter 04:46

Лог создания рипа

Exact Audio Copy V1.1 from 23. June 2015
Отчёт EAC об извлечении, выполненном 11. мая 2019, 16:04
Thrash Bombz / Prisoner Of Disaster
Дисковод: HL-DT-STDVDRAM GTA0N Adapter: 1 ID: 0
Режим чтения : ДостоверностьИспользование точного потока : ДаОтключение кэша аудио : ДаИспользование указателей C2 : Нет
Коррекция смещения при чтении : 102Способность читать области Lead-in и Lead-out : НетЗаполнение пропущенных сэмплов тишиной : ДаУдаление блоков с тишиной в начале и конце : НетПри вычислениях CRC использовались нулевые сэмплы : ДаИнтерфейс : Встроенный Win32-интерфейс для Win NT/2000
Выходной формат : Пользовательский кодировщикВыбранный битрейт : 768 kBit/sКачество : ВысокийДобавление ID3-тега : НетУтилита сжатия : C:\Program Files (x86)\Exact Audio Copy\FLAC\FLAC.EXEДополнительные параметры : -V -8 -T "Date=%year%" -T "Genre=%genre%" %source%
TOC извлечённого CD
Трек | Старт | Длительность | Начальный сектор | Конечный сектор --------------------------------------------------------------------- 1 | 0:00.00 | 0:56.40 | 0 | 4239 2 | 0:56.40 | 4:24.39 | 4240 | 24078 3 | 5:21.04 | 5:29.19 | 24079 | 48772 4 | 10:50.23 | 4:12.00 | 48773 | 67672 5 | 15:02.23 | 3:35.56 | 67673 | 83853 6 | 18:38.04 | 6:36.61 | 83854 | 113614 7 | 25:14.65 | 4:46.31 | 113615 | 135095
Характеристики диапазона извлечения и сообщения об ошибках
Выбранный диапазон
Имя файла C:\Users\магазин\Music\Мои лосята\Thrash Bombz - Prisoner Of Disaster.wav
Пиковый уровень 100.0 % Скорость извлечения 3.6 X Качество диапазона 100.0 % CRC теста B05E42BF CRC копии B05E42BF Копирование... OK
Ошибок не произошло
AccurateRip: сводка
Трек 1 отсутствует в базе данныхТрек 2 отсутствует в базе данныхТрек 3 отсутствует в базе данныхТрек 4 отсутствует в базе данныхТрек 5 отсутствует в базе данныхТрек 6 отсутствует в базе данныхТрек 7 отсутствует в базе данных
Ни одного трека нет в базе AccurateRip
Конец отчёта
---- CUETools DB Plugin V2.1.6
[CTDB TOCID: Nrr60aaAevudJUNYs2qW_1sTSBA-] disk not present in databaseSubmit result: Nrr60aaAevudJUNYs2qW_1sTSBA- has been uploaded
==== Контрольная сумма отчёта 3D5CD3130A913CA33B88DE07F08F81B168B5183ED4B7E483A3CC040251932588 ====

If you like the topic, please click share to help develop our site.

To download the file disable ad blocking, and reload the page.

disable adblock How to disable ad blocking?

Download by magnet link 225 MB Download Torrent

Login using:

Similar topics



   
Current time is: 20-Jul 10:45 :: All times are UTC + 3