Atomic Fear / Infernal Militia
Жанр: Thrash Metal
Носитель: CD
Год издания: 2018
Издатель (лейбл): OLD Records
Номер по каталогу: CD001
Страна исполнителя (группы): Mexico
Аудиокодек: FLAC (*.flac)
Тип рипа: image+.cue
Продолжительность: 00:44:56
Источник: собственный рип
Наличие сканов в содержимом раздачи: да
Треклист:
01. Metal Slug 05:39
02. Revolution 04:16
03. Infection 03:48
04. Space Invaders 04:47
05. Cock Sucker 03:11
06. Infernal Militia 03:56
07. Fake Liberty 03:35
08. Eternal Nightmare 03:06
09. Slave Of Religion 04:07
10. Zombie Command 04:06
11. From The Other Dimension 04:22

Лог создания рипа

Exact Audio Copy V1.1 from 23. June 2015
Отчёт EAC об извлечении, выполненном 13. апреля 2019, 12:03
Atomic Fear / Infernal Militia
Дисковод: HL-DT-STDVDRAM GTA0N Adapter: 1 ID: 0
Режим чтения : ДостоверностьИспользование точного потока : ДаОтключение кэша аудио : ДаИспользование указателей C2 : Нет
Коррекция смещения при чтении : 102Способность читать области Lead-in и Lead-out : НетЗаполнение пропущенных сэмплов тишиной : ДаУдаление блоков с тишиной в начале и конце : НетПри вычислениях CRC использовались нулевые сэмплы : ДаИнтерфейс : Встроенный Win32-интерфейс для Win NT/2000
Выходной формат : Пользовательский кодировщикВыбранный битрейт : 768 kBit/sКачество : ВысокийДобавление ID3-тега : НетУтилита сжатия : C:\Program Files (x86)\Exact Audio Copy\FLAC\FLAC.EXEДополнительные параметры : -V -8 -T "Date=%year%" -T "Genre=%genre%" %source%
TOC извлечённого CD
Трек | Старт | Длительность | Начальный сектор | Конечный сектор --------------------------------------------------------------------- 1 | 0:00.00 | 5:39.37 | 0 | 25461 2 | 5:39.37 | 4:16.26 | 25462 | 44687 3 | 9:55.63 | 3:48.18 | 44688 | 61805 4 | 13:44.06 | 4:47.31 | 61806 | 83361 5 | 18:31.37 | 3:11.00 | 83362 | 97686 6 | 21:42.37 | 3:56.04 | 97687 | 115390 7 | 25:38.41 | 3:35.21 | 115391 | 131536 8 | 29:13.62 | 3:06.00 | 131537 | 145486 9 | 32:19.62 | 4:07.37 | 145487 | 164048 10 | 36:27.24 | 4:06.18 | 164049 | 182516 11 | 40:33.42 | 4:22.02 | 182517 | 202168
Характеристики диапазона извлечения и сообщения об ошибках
Выбранный диапазон
Имя файла C:\Users\магазин\Music\Мои лосята\Atomic Fear - Infernal Militia.wav
Пиковый уровень 100.0 % Скорость извлечения 1.2 X Качество диапазона 100.0 % CRC теста 8082577F CRC копии 8082577F Копирование... OK
Ошибок не произошло
AccurateRip: сводка
Трек 1 отсутствует в базе данныхТрек 2 отсутствует в базе данныхТрек 3 отсутствует в базе данныхТрек 4 отсутствует в базе данныхТрек 5 отсутствует в базе данныхТрек 6 отсутствует в базе данныхТрек 7 отсутствует в базе данныхТрек 8 отсутствует в базе данныхТрек 9 отсутствует в базе данныхТрек 10 отсутствует в базе данныхТрек 11 отсутствует в базе данных
Ни одного трека нет в базе AccurateRip
Конец отчёта
---- CUETools DB Plugin V2.1.6
[CTDB TOCID: 2YVdRkpc12rearO8x4gIkL.h5po-] disk not present in databaseSubmit result: 2YVdRkpc12rearO8x4gIkL.h5po- has been uploaded
==== Контрольная сумма отчёта BAA7AC4CBAB444C1AF2D8F46A90F86E76130527F38012819A68142534DE401E3 ====

If you like the topic, please click share to help develop our site.

To download the file disable ad blocking, and reload the page.

disable adblock How to disable ad blocking?

Download by magnet link 329 MB Download Torrent

Login using:

Similar topics



   
Current time is: 16-Jul 09:54 :: All times are UTC + 3