Electrocution / Inside The Unreal
Жанр: Death Metal
Носитель: CD
Страна-производитель диска (релиза): Italy
Год издания: 1993
Издатель (лейбл): Contempo Records / Rosemary's
Номер по каталогу: BABE 6CD
Страна исполнителя (группы): Italy
Аудиокодек: FLAC (*.flac)
Тип рипа: image+.cue
Продолжительность: 37:24
Источник: MeTaLMaDNeSS.TeaM by Funsathal
Наличие сканов в содержимом раздачи: нет
Треклист:
01. Premature Burial (03:47)
02. Rising Of Infection (03:35)
03. They Died Without Crosses (04:20)
04. Growing Into The Flesh (Bleed To Death) (03:30)
05. Body's Decay (03:26)
06. Ghost Of The Past (05:40)
07. Under The Wings Only Remains (04:02)
08. Back To The Leprosy Death (02:21)
09. Behind The Truth (03:30)
10. Bells Of The End (03:13)

Лог создания рипа

Exact Audio Copy V0.99 prebeta 5 from 4. May 2009
EAC extraction logfile from 22. August 2012, 9:49
Electrocution / Inside The Unreal
Used drive : JLMS XJ-HD166S Adapter: 3 ID: 1
Read mode : SecureUtilize accurate stream : YesDefeat audio cache : YesMake use of C2 pointers : No
Read offset correction : 12Overread into Lead-In and Lead-Out : NoFill up missing offset samples with silence : YesDelete leading and trailing silent blocks : NoNull samples used in CRC calculations : YesUsed interface : Native Win32 interface for Win NT & 2000
Used output format : Internal WAV RoutinesSample format : 44.100 Hz; 16 Bit; Stereo
TOC of the extracted CD
Track | Start | Length | Start sector | End sector --------------------------------------------------------- 1 | 0:00.33 | 3:47.05 | 33 | 17062 2 | 3:47.38 | 3:34.60 | 17063 | 33172 3 | 7:22.23 | 4:19.65 | 33173 | 52662 4 | 11:42.13 | 3:30.32 | 52663 | 68444 5 | 15:12.45 | 3:25.50 | 68445 | 83869 6 | 18:38.20 | 5:39.65 | 83870 | 109359 7 | 24:18.10 | 4:02.30 | 109360 | 127539 8 | 28:20.40 | 2:20.48 | 127540 | 138087 9 | 30:41.13 | 3:30.37 | 138088 | 153874 10 | 34:11.50 | 3:12.65 | 153875 | 168339
Range status and errors
Selected range
Filename F:\BABE 6CD\Electrocution - Inside The Unreal.wav
Peak level 100.0 % Range quality 100.0 % Test CRC 17745577 Copy CRC 17745577 Copy OK
No errors occurred
AccurateRip summary
Track 1 not present in databaseTrack 2 not present in databaseTrack 3 not present in databaseTrack 4 not present in databaseTrack 5 not present in databaseTrack 6 not present in databaseTrack 7 not present in databaseTrack 8 not present in databaseTrack 9 not present in databaseTrack 10 not present in database
None of the tracks are present in the AccurateRip database
End of status report

Скриншот спектра частот

DRM

foobar2000 1.4.4 / Dynamic Range Meter 1.1.1
log date: 2019-05-12 16:43:04
--------------------------------------------------------------------------------
Analyzed: Electrocution / Inside The Unreal
--------------------------------------------------------------------------------
DR Peak RMS Duration Track
--------------------------------------------------------------------------------
DR12 -0.13 dB -14.43 dB 3:47 01-Premature Burial
DR11 0.00 dB -12.96 dB 3:35 02-Rising Of Infection
DR12 -0.36 dB -14.88 dB 4:20 03-They Died Without Crosses
DR12 -0.36 dB -14.34 dB 3:30 04-Growing Into The Flesh (Bleed To Death)
DR12 -1.36 dB -16.52 dB 3:26 05-Body's Decay
DR13 -0.20 dB -13.89 dB 5:40 06-Ghost Of The Past
DR12 -0.79 dB -15.15 dB 4:02 07-Under The Wings Only Remains
DR12 -0.20 dB -14.44 dB 2:21 08-Back To The Leprosy Death
DR13 -0.91 dB -16.50 dB 3:30 09-Behind The Truth
DR12 -0.38 dB -14.91 dB 3:13 10-Bells Of The End
--------------------------------------------------------------------------------
Number of tracks: 10
Official DR value: DR12
================================================================================

Об исполнителе (группе)

https://www.metal-archives.com/bands/Electrocution/3417

Состав

Bass – Max Canali
Drums – Luca Canali
Guitar – Alex Guadagnoli, Mick Montaguti
Vocals – Mick Montaguti
Другие издания альбома:
Electrocution - Inside The Unreal (20th Anniversary Edition) - 2012
Electrocution - Inside The Unreal + Demos (2CD) - 2017

If you like the topic, please click share to help develop our site.

To download the file disable ad blocking, and reload the page.

disable adblock How to disable ad blocking?

Download by magnet link 255 MB Download Torrent

Login using:

Similar topics



   
Current time is: 20-Jul 10:51 :: All times are UTC + 3