DGM - Change Direction- Жанр: Progressive Metal
Носитель: WEB
Год издания: 2019
Издатель-лейбл: Legend Studio
Страна исполнителя: Italy
Аудиокодек: FLAC (*.flac)
Тип рипа: tracks
Битрейт аудио: lossless
Продолжительность: 00:49:56
Источник: интернет
Наличие сканов: нет

Треклист:
01. Brainstorming (2019 Remastered) (5:03)
02. In My Heart (2019 Remastered) (4:37)
03. The Last Memory (2019 Remastered) (7:33)
04. Lonely Nights (2019 Remastered) (7:06)
05. Anthem (2019 Remastered) (8:48)
06. Do What You You Want! (2019 Remastered) (4:52)
07. Change Direction (2019 Remastered) (6:47)
08. Flyin’ Fantasy (2019 Remastered) (5:10)

auCDtect

CUE Corrector v. 8.3.5 / b. 913 (Apr. 22, 2019)————————————————————————————————————————————————————————————————————————DGM / Change Direction
Folder: DGM - 1997 - Change Direction (2019 Remastered) [FLAC]Audio files: 01 Brainstorming (2019 Remastered).flac [05:03.173; FLAC • 1076 kbps • 16 bit \ 44100 Hz • stereo; 38.90 MB (40 790 782 B)] 02 In My Heart (2019 Remastered).flac [04:36.520; FLAC • 1050 kbps • 16 bit \ 44100 Hz • stereo; 34.63 MB (36 314 686 B)] 03 The Last Memory (2019 Remastered).flac [07:32.947; FLAC • 1015 kbps • 16 bit \ 44100 Hz • stereo; 54.84 MB (57 504 165 B)] 04 Lonely Nights (2019 Remastered).flac [07:05.787; FLAC • 938 kbps • 16 bit \ 44100 Hz • stereo; 47.62 MB (49 931 072 B)] 05 Anthem (2019 Remastered).flac [08:48.320; FLAC • 1042 kbps • 16 bit \ 44100 Hz • stereo; 65.65 MB (68 840 021 B)] 06 Do What You You Want! (2019 Remastered).flac [04:51.853; FLAC • 1052 kbps • 16 bit \ 44100 Hz • stereo; 36.62 MB (38 393 769 B)] 07 Change Direction (2019 Remastered).flac [06:47.440; FLAC • 1036 kbps • 16 bit \ 44100 Hz • stereo; 50.36 MB (52 803 791 B)] 08 Flyin’ Fantasy (2019 Remastered).flac [05:10.333; FLAC • 1084 kbps • 16 bit \ 44100 Hz • stereo; 40.11 MB (42 058 061 B)]
Accuracy: -m0
File 01 Brainstorming (2019 Remastered) - 100% CDDA [05:03:13]File 02 In My Heart (2019 Remastered) - 100% CDDA [04:36:39]File 03 The Last Memory (2019 Remastered) - 100% CDDA [07:32:71]File 04 Lonely Nights (2019 Remastered) - 100% CDDA [07:05:59]File 05 Anthem (2019 Remastered) - 100% CDDA [08:48:24]File 06 Do What You You Want! (2019 Remastered) - 100% CDDA [04:51:64]File 07 Change Direction (2019 Remastered) - 100% CDDA [06:47:33]File 08 Flyin’ Fantasy (2019 Remastered) - 100% CDDA [05:10:25]————— Summary: —————These tracks looks like CDDA with probability 100%.————————————————————————————————————————————————————————————————————————
ANALYZER: auCDtect: CD records authenticity detector, version 0.8.2 Copyright (c) 2004 Oleg Berngardt. All rights reserved. Copyright (c) 2004 Alexander Djourik. All rights reserved.
Time elapsed: 2 m 18 sLog created at May 12, 2019 07:41:07
=== AFE372048C9C9E8683354630BD32BAC40849B75DBADBF764EF452582015BD4C7 ===

CUETools

[CUETools log; Date: 12.05.2019 7:36:35; Version: 2.1.6]Padded some input files to a frame boundary.[CTDB TOCID: nAAqg2rIMu4dvwKdrjvgU72T8yQ-] disk not present in database.[AccurateRip ID: 000f3ed7-00671adf-690bb408] disk not present in database.
Track Peak [ CRC32 ] [W/O NULL] -- 98,6 [19C2F203] [7FAEFFB4] 01 98,6 [BB803916] [0B67C8EB] 02 98,6 [C764B04E] [4C96604B] 03 98,6 [2FAEBB75] [00FB9C11] 04 98,6 [E64B6764] [63B2371E] 05 98,6 [B25B8AD7] [638DBBE4] 06 98,6 [2B1D74EA] [E301A5F7] 07 98,6 [9855CAB8] [582649B7] 08 98,6 [E38DDE95] [426FD7B8]

DR

foobar2000 1.4.3 / Замер динамического диапазона (DR) 1.1.1Дата отчёта:  2019-05-12 07:36:10
--------------------------------------------------------------------------------Анализ: DGM / Change Direction--------------------------------------------------------------------------------
DR Пики RMS Продолжительность трека--------------------------------------------------------------------------------DR7 -0.12 дБ -7.61 дБ 5:03 01-Brainstorming (2019 Remastered)DR6 -0.12 дБ -7.51 дБ 4:37 02-In My Heart (2019 Remastered)DR6 -0.12 дБ -8.23 дБ 7:33 03-The Last Memory (2019 Remastered)DR6 -0.12 дБ -8.49 дБ 7:06 04-Lonely Nights (2019 Remastered)DR6 -0.12 дБ -7.12 дБ 8:48 05-Anthem (2019 Remastered)DR6 -0.12 дБ -7.14 дБ 4:52 06-Do What You You Want! (2019 Remastered)DR7 -0.12 дБ -7.82 дБ 6:47 07-Change Direction (2019 Remastered)DR7 -0.12 дБ -7.95 дБ 5:10 08-Flyin’ Fantasy (2019 Remastered)--------------------------------------------------------------------------------
Количество треков: 8Реальные значения DR: DR6
Частота: 44100 ГцКаналов: 2Разрядность: 16Битрейт: 1060 кбит/сКодек: FLAC================================================================================

If you like the topic, please click share to help develop our site.

To download the file disable ad blocking, and reload the page.

disable adblock How to disable ad blocking?

Download by magnet link 369 MB Download Torrent

Login using:

Similar topics



   
Current time is: 17-Jul 05:19 :: All times are UTC + 3